Quick Browse
Movies
TV shows
Music
Games
Applications
Anime
Other
Facebook
Advertising

Friends
Torrent Download
Movie4u
1337x.to
Torrent Downloads




Verified torrent The.Borgias.S01E07-09.HDTV.XviD.Eng_Sub.Ita-[IDN_CREW]


    Seeders : 1      Leechers : 6
Hash :B9D9387C0D5E342F5D6D6D17B3156E136DB9F3AF
Added :1 Year+ by manny02Verified torrent uploader in TV shows
Size :1.42 GB
Stream :WATCH ONLINE @ Movie4u


The.Borgias.S01E07-09.HDTV.XviD.Eng_Sub.Ita-[IDN_CREW]
Free and Fast Download with Usenet 300GB+ free







Trackers List

Tracker NameLast CheckStatusSeedersLeechers




Torrent File Content (4 files)


The.Borgias.S01E07-09.HDTV.XviD.Eng_Sub.Ita-[IDN_CREW]
     IDN_CREW Leggimi.txt -
294 bytes

     The.Borgias.S01E07.HDTV.XviD.Eng_Sub.Ita-[IDN_CREW].avi -
550.02 MB

     The.Borgias.S01E08.HDTV.XviD.Eng_Sub.Ita-[IDN_CREW].avi -
550.01 MB

     The.Borgias.S01E09.HDTV.XviD.Eng_Sub.Ita-[IDN_CREW].avi -
350 MB



Description



http://img14.imageshack.us/img14/6645/theborgias.png



http://img514.imageshack.us/img514/1502/inforelease.png



[color=red]Titolo:[/color] The Borgias
[color=red]Anno: [/color]2011
[color=red]Nazionalità: [/color]USA
[color=red]Genere:[/color] Storico
[color=red]Lingua:[/color] Inglese
[color=red]Stagione:[/color] 1
[color=red]Episodi:[/color] 9
[color=red]Durata Episodio:[/color] 50 min.
[color=red]Ideatore:[/color] Neil Jordan
[color=red]Produzione:[/color] Borgias Productions, Mid Atlantic Films, Octagon Films
[color=red]Rete Televisiva:[/color] Showtime
[color=beige]Fonti:[/color][color=white] http://it.wikipedia.org/wiki/The_Borgias [/color]



http://img685.imageshack.us/img685/5835/casta.png


http://img819.imageshack.us/img819/8700/theborgiascastkeyart400.jpg


[color=teal]Papa Alessandro VI, interpretato da Jeremy Irons.
Cesare Borgia, interpretato da François Arnaud.
Lucrezia Borgia, interpretata da Holliday Grainger.
Vannozza dei Cattanei, interpretata da Joanne Whalley.
Giulia Farnese, interpretata da Lotte Verbeek.
Juan Borgia, interpretato da David Oakes.
Michelotto Corella, interpretato da Sean Harris.
Johannes Burchard, interpretato da Simon McBurney.
Orsino Orsini, interpretato da Derek Jacobi.
Jofré Borgia, interpretato da Aidan Alexander.
Giuliano della Rovere, interpretato da Colm Feore.[/color]


http://img864.imageshack.us/img864/7976/episodi.png


[color=black]1. The Poisoned Chalice
2. The Assassin
3. The Moor
4. Lucrezia’s Wedding
5. The Borgias in Love
6. The French King
7. Death on a Pale Horse
8. The Art of War
9. Nobody[/color]


http://img153.imageshack.us/img153/7608/tramao.png


[color=black] Roma, 1492. Al capezzale del morente Innocenzo VIII, Rodrigo Borgia e Giuliano della Rovere già pensano a come farsi strada verso il pontificato. A spuntarla è il primo, che diventa Alessandro VI e si affretta a consolidare il proprio potere piazzando i propri figli illegittimi in posizioni convenienti: Cesare diventerà cardinale e lo aiuterà a difendersi dagli attacchi interni al Vaticano, il frivolo Juan penserà agli affari militari e la quattordicenne figlia Lucrezia si sposerà con chiunque rappresenti un buon alleato. Ma i nemici dei Borgia non demordono: il cardinale Orsini non lo avvelena per poco e Della Rovere cerca di svelare la sua scandalosa relazione con Giulia Farnese. Non ci riuscirà, perché Cesare e il sicario Micheletto sono risoluti a difendere il Papa e la sua famiglia.[/color]

http://img190.imageshack.us/img190/7663/recension.png


[color=black] The Borgias è una serie televisiva statunitense in onda su Showtime dal 3 aprile 2011 che narra la storia della famiglia italiana dei Borgia, una delle più influenti a cavallo tra il XV e XVI secolo.
Nei panni di Rodrigo Borgia, assorto al soglio pontificio con il nome di Alessandro VI: sua eccellenza Jeremy Irons, che da tempo non si concedeva ad un personaggio villain. La serie, creata da Neil Jordan (La moglie del soldato) insieme a Michael Hirst, che sulle storie di corte ha costruito una carriera ed è reduce dal successo di The Tudors, seguendo la stessa linea di pensiero che aveva dato nuova scandalosa vita a Enrico VIII, mette da parte l’indottrinamento storico per abbandonarsi al più turpe dramma familiare confezionato con una messa in scena lucida e passionale. [/color]


http://img529.imageshack.us/img529/7286/datifile.png


http://torrent-stats.info/6d17/97ef377d.png


http://img545.imageshack.us/img545/125/theborgiasv.jpg


[color=red]General
Complete name : C:\Users\Manny\Documents\Azureus Downloads\The.Borgias.S01E07-09.HDTV.XviD.Eng_Sub.Ita-[IDN_CREW]\The.Borgias.S01E07.HDTV.XviD.Eng_Sub.Ita-[IDN_CREW].avi
Format : AVI
Format/Info : Audio Video Interleave
File size : 550 MiB
Duration : 50mn 12s
Overall bit rate : 1 531 Kbps
Writing application : VirtualDubMod 1.5.10.2 (build 2542/release)
Writing library : VirtualDubMod build 2542/release

Video
Format : MPEG-4 Visual
Format profile : Streaming [email protected]
Format settings, BVOP : Yes
Format settings, QPel : No
Format settings, GMC : No warppoints
Format settings, Matrix : Default
Muxing mode : Packed bitstream
Codec ID : XVID
Codec ID/Hint : XviD
Duration : 50mn 12s
Bit rate : 1 368 Kbps
Width : 624 pixels
Height : 352 pixels
Display aspect ratio : 16/9
Frame rate : 23.976 fps
Resolution : 24 bits
Colorimetry : 4:2:0
Scan type : Progressive
Bits/(Pixel*Frame) : 0.260
Stream size : 491 MiB (89%)
Writing library : XviD 62

Audio
Format : MPEG Audio
Format version : Version 1
Format profile : Layer 3
Codec ID : 55
Codec ID/Hint : MP3
Duration : 50mn 12s
Bit rate mode : Variable
Bit rate : 150 Kbps
Channel(s) : 2 channels
Sampling rate : 48.0 KHz
Resolution : 16 bits
Stream size : 54.0 MiB (10%)
Alignment : Aligned on interleaves
Interleave, duration : 24 ms (0.58 video frame)
Interleave, preload duration : 421 ms
[/color]

http://img20.imageshack.us/img20/4974/screenshotsph.png


http://img193.imageshack.us/img193/4792/vlcsnap2011051515h25m02.png

http://img856.imageshack.us/img856/6789/vlcsnap2011051515h25m26.png

http://img156.imageshack.us/img156/5946/vlcsnap2011051515h25m45.png

http://img16.imageshack.us/img16/6301/vlcsnap2011051515h26m08.png

http://img31.imageshack.us/img31/5553/vlcsnap2011051515h26m16.png



http://img687.imageshack.us/img687/5791/nuuuuuuuuuuu.png


Related torrents

Torrent NameAddedSizeSeedLeechHealth
1 Year+ - in TV shows358.09 MB10
1 Year+ - in TV shows723.11 MB21
1 Year+ - in TV shows757.76 MB21
1 Year+ - in TV shows339 MB00
1 Year+ - in TV shows379.96 MB11
1 Year+ - in TV shows349 MB11

Comments (0 Comments)




Please login or create a FREE account to post comments

Latest Searches

| Cassandra Clare City of Fallen Angels | A Certain Magical Index 2 dual audio | X videos | Amber Deen Shy Russian Cured by Cock Treatment | kink xander | bind me epub | WEATHERING Right Track | brutl | the hunger games mockingjay part 2 ita 1080p | marvels cartoons |