Quick Browse
Movies
TV shows
Music
Games
Applications
Anime
Other
Facebook
Advertising

Friends
Torrent Download
Movie4u
1337x.to
Torrent Downloads




The.Mafia.Family.Affair.2005.iTALiAN.STV.DVDRip.XviD-Rebels[Ultima Frontiera].torrent


    Seeders : 2      Leechers : 7

Trackers List

Tracker NameLast CheckStatusSeedersLeechers




Torrent File Content (1 file)


     The.Mafia.Family.Affair.2005.iTALiAN.STV.DVDRip.XviD-Rebels.avi -
697.87 MB



Description



http://i35.tinypic.com/23vevc8.jpg


http://img232.imageshack.us/img232/5660/lacopertinadithemafiafa.jpg



http://i36.tinypic.com/2wlzn9f.jpg


Titolo: The Mafia Family Affairs
Regia: Roger Evan Larry
Genere: Commedia/Romantico
Anno: 2005
Paese: Canada



http://i34.tinypic.com/301n9ec.jpg


Sebastian Spence, Crystal Buble, Alan C. Peterson, Bif Naked, Jo Bates, Warren Christie, Dave Cote, Bernie Coulson, Fred Ewanuick, Raoul Ganeev


http://i33.tinypic.com/2ldeeyr.jpg


Daniel Cimerman ha voltato le spalle a una famiglia malavitosa, ed è diventato un banchiere. Sul letto di morte, il padre gli chiede di prendersi cura degli affari di famiglia e di trasformarli in leciti. Una nuova vita lo attende, ma non immagina quale: quando un rivale gli mette alle costole la sexy Davina, con lei scoprirà l’emozione di... travestirsi da donna! Daniel finisce per perdersi in un mondo di crimine e desiderio, amore e lingerie.


http://i227.photobucket.com/albums/dd182/mannix_05/DATI-TECNICI-13.jpg


[code]
General
Complete name : Dvdrip/The.Mafia.Family.Affair.2005.iTALiAN.STV.DVDRip.XviD-Rebels.avi
Format : AVI
Format/Info : Audio Video Interleave
File size : 698 MiB
Duration : 1h 31mn
Overall bit rate : 1 071 Kbps
Writing application : VirtualDubMod 1.5.10.2 (build 2540/release)
Writing library : VirtualDubMod build 2540/release

Video
ID : 0
Format : MPEG-4 Visual
Format profile : [email protected]
Format settings, BVOP : Yes
Format settings, QPel : No
Format settings, GMC : No warppoints
Format settings, Matrix : Default (MPEG)
Codec ID : XVID
Codec ID/Hint : XviD
Duration : 1h 31mn
Bit rate : 938 Kbps
Width : 640 pixels
Height : 368 pixels
Display aspect ratio : 16/9
Frame rate : 25.000 fps
Resolution : 24 bits
Colorimetry : 4:2:0
Scan type : Progressive
Bits/(Pixel*Frame) : 0.159
Stream size : 611 MiB (88%)
Writing library : XviD 1.2.1 (UTC 2008-12-04)

Audio
ID : 1
Format : MPEG Audio
Format version : Version 1
Format profile : Layer 3
Codec ID : 55
Codec ID/Hint : MP3
Duration : 1h 31mn
Bit rate mode : Variable
Bit rate : 120 Kbps
Nominal bit rate : 128 Kbps
Channel(s) : 2 channels
Sampling rate : 48.0 KHz
Resolution : 16 bits
Stream size : 78.2 MiB (11%)
Alignment : Aligned on interleaves
Interleave, duration : 24 ms (0.60 video frame)
Interleave, preload duration : 153 ms
Writing library : LAME3.99a
Encoding settings : -m j -V 4 -q 2 -lowpass 17 --abr 128
[/code]

Related torrents

Torrent NameAddedSizeSeedLeechHealth
1 Year+ - in Movies697.87 MB141
1 Year+ - in Movies697.87 MB1594
1 Year+ - in Movies698.93 MB00
1 Year+ - in Movies699.98 MB00
1 Year+ - in Movies4.13 GB399

Comments (0 Comments)




Please login or create a FREE account to post comments

Latest Searches

| The Hard Way 1991 1080p DTS DD2 0 EN Subs | Adobe Premiere Pro Retail | vol i h e r | parallax web template | Brahmotsavam J | X Y explorer | im lonely | Lil Radio | First Quest Sofy Soul | openoffice 4 0 1 mac |