Quick Browse
Movies
TV shows
Music
Games
Applications
Anime
Other
Facebook
Advertising

Friends
Torrent Download
Movie4u
1337x.to
Torrent Downloads




The.Possessed.2009.Xvid.TA.torrent_[trackeraccess_org]


    Seeders : 28      Leechers : 19
Hash :9262F23BF65FA473C424E9DB85DFBFBDEE94ED7F
Added :1 Year+ in Movies
Size :678.42 MB
Stream :WATCH ONLINE @ Movie4u


The.Possessed.2009.Xvid.TA.torrent_[trackeraccess_org]
Free and Fast Download with Usenet 300GB+ free







Trackers List

Tracker NameLast CheckStatusSeedersLeechers




Torrent File Content (51 files)


The.Possessed.2009.Xvid.TA
     The.Possessed.2009.Xvid.TA.part26.rar -
13.97 MB

     The.Possessed.2009.Xvid.TA.part03.rar -
13.97 MB

     The.Possessed.2009.Xvid.TA.part02.rar -
13.97 MB

     The.Possessed.2009.Xvid.TA.part04.rar -
13.97 MB

     The.Possessed.2009.Xvid.TA.part05.rar -
13.97 MB

     The.Possessed.2009.Xvid.TA.part06.rar -
13.97 MB

     The.Possessed.2009.Xvid.TA.part07.rar -
13.97 MB

     The.Possessed.2009.Xvid.TA.part08.rar -
13.97 MB

     The.Possessed.2009.Xvid.TA.part09.rar -
13.97 MB

     The.Possessed.2009.Xvid.TA.part10.rar -
13.97 MB

     The.Possessed.2009.Xvid.TA.part11.rar -
13.97 MB

     The.Possessed.2009.Xvid.TA.part12.rar -
13.97 MB

     The.Possessed.2009.Xvid.TA.part13.rar -
13.97 MB

     The.Possessed.2009.Xvid.TA.part14.rar -
13.97 MB

     The.Possessed.2009.Xvid.TA.part15.rar -
13.97 MB

     The.Possessed.2009.Xvid.TA.part16.rar -
13.97 MB

     The.Possessed.2009.Xvid.TA.part17.rar -
13.97 MB

     The.Possessed.2009.Xvid.TA.part18.rar -
13.97 MB

     The.Possessed.2009.Xvid.TA.part19.rar -
13.97 MB

     The.Possessed.2009.Xvid.TA.part20.rar -
13.97 MB

     The.Possessed.2009.Xvid.TA.part21.rar -
13.97 MB

     The.Possessed.2009.Xvid.TA.part22.rar -
13.97 MB

     The.Possessed.2009.Xvid.TA.part23.rar -
13.97 MB

     The.Possessed.2009.Xvid.TA.part24.rar -
13.97 MB

     The.Possessed.2009.Xvid.TA.part25.rar -
13.97 MB

     The.Possessed.2009.Xvid.TA.part01.rar -
13.97 MB

     The.Possessed.2009.Xvid.TA.part27.rar -
13.97 MB

     The.Possessed.2009.Xvid.TA.part28.rar -
13.97 MB

     The.Possessed.2009.Xvid.TA.part29.rar -
13.97 MB

     The.Possessed.2009.Xvid.TA.part30.rar -
13.97 MB

     The.Possessed.2009.Xvid.TA.part31.rar -
13.97 MB

     The.Possessed.2009.Xvid.TA.part32.rar -
13.97 MB

     The.Possessed.2009.Xvid.TA.part33.rar -
13.97 MB

     The.Possessed.2009.Xvid.TA.part34.rar -
13.97 MB

     The.Possessed.2009.Xvid.TA.part35.rar -
13.97 MB

     The.Possessed.2009.Xvid.TA.part36.rar -
13.97 MB

     The.Possessed.2009.Xvid.TA.part37.rar -
13.97 MB

     The.Possessed.2009.Xvid.TA.part38.rar -
13.97 MB

     The.Possessed.2009.Xvid.TA.part39.rar -
13.97 MB

     The.Possessed.2009.Xvid.TA.part40.rar -
13.97 MB

     The.Possessed.2009.Xvid.TA.part41.rar -
13.97 MB

     The.Possessed.2009.Xvid.TA.part42.rar -
13.97 MB

     The.Possessed.2009.Xvid.TA.part43.rar -
13.97 MB

     The.Possessed.2009.Xvid.TA.part44.rar -
13.97 MB

     The.Possessed.2009.Xvid.TA.part45.rar -
13.97 MB

     The.Possessed.2009.Xvid.TA.part46.rar -
13.97 MB

     The.Possessed.2009.Xvid.TA.part47.rar -
13.97 MB

     The.Possessed.2009.Xvid.TA.part48.rar -
13.97 MB

     The.Possessed.2009.Xvid.TA.part49.rar -
4.47 MB

     Sample.avi -
3.33 MB



Description



The.Possessed.2009.Xvid.TA

http://i46.tinypic.com/2iigxw1.jpg


http://www.imdb.com/title/tt1067777/


General
Complete name : The.Possessed.2009.Xvid.TA.avi
Format : AVI
Format/Info : Audio Video Interleave
File size : 680 MiB
Duration : 1h 23mn
Overall bit rate : 1 136 Kbps
Writing application : VirtualDubMod 1.5.4.1 (build 2178/release)
Writing library : VirtualDubMod build 2178/release

Video
ID : 0
Format : MPEG-4 Visual
Format profile : [email protected]
Format settings, BVOP : Yes
Format settings, QPel : No
Format settings, GMC : No warppoints
Format settings, Matrix : Custom
Codec ID : XVID
Codec ID/Hint : XviD
Duration : 1h 23mn
Bit rate : 999 Kbps
Width : 608 pixels
Height : 368 pixels
Display aspect ratio : 1.652
Frame rate : 29.970 fps
Resolution : 24 bits
Colorimetry : 4:2:0
Scan type : Progressive
Bits/(Pixel*Frame) : 0.149
Stream size : 598 MiB (88%)
Writing library : XviD 1.2.1 (UTC 2008-12-04)

Audio
ID : 1
Format : MPEG Audio
Format version : Version 1
Format profile : Layer 3
Codec ID : 55
Codec ID/Hint : MP3
Duration : 1h 23mn
Bit rate mode : Constant
Bit rate : 128 Kbps
Channel(s) : 2 channels
Sampling rate : 48.0 KHz
Resolution : 16 bits
Stream size : 76.7 MiB (11%)
Alignment : Aligned on interleaves
Interleave, duration : 67 ms (2.00 video frames)
Interleave, preload duration : 504 ms
Writing library : LAME3.98r
Encoding settings : -m j -V 4 -q 2 -lowpass 17 -b 128

Screens:

http://i46.tinypic.com/ravshs.jpg

http://i50.tinypic.com/15cjz94.jpg

http://i46.tinypic.com/2nle83s.jpg

http://i49.tinypic.com/21ay9hz.jpg


Enjoy.
TA rg

Related torrents

Torrent NameAddedSizeSeedLeechHealth
1 Year+ - in Movies784.1 MB2227
1 Year+ - in Movies832.83 MB00
1 Year+ - in Movies1.65 GB01
1 Year+ - in Applications156.87 MB00
1 Year+ - in Music174.55 MB5849

Comments (0 Comments)




Please login or create a FREE account to post comments

Latest Searches

| Jonathan Antoine Tenore CD Album 2014 zip | Transformers The Last Knight 2017 | Nine Lives 2016 1080p BluRay | little girl lesbian | here it is feat chris brown | elearning wordpress | WakeUpNFuck Lovenia Lux and Arwen Gold | filmore 8 | 09 65 | 1978 Lionheart |