Quick Browse
Movies
TV shows
Music
Games
Applications
Anime
Other
Facebook
Advertising

Friends
Torrent Download
Movie4u
1337x.to
Torrent Downloads




The.Stepfather.2009.UNRATED.DVDRip.XviD-ARROW


    Seeders : 27      Leechers : 11
Hash :BA4F573AD133C21477631C22128A6BC383F9CD93
Added :1 Year+ in Movies
Size :705.13 MB
Stream :WATCH ONLINE @ Movie4u


The.Stepfather.2009.UNRATED.DVDRip.XviD-ARROW
Free and Fast Download with Usenet 300GB+ free







Trackers List

Tracker NameLast CheckStatusSeedersLeechers




Torrent File Content (4 files)


The Stepfather DVDRip www.IWANNADOWNLOAD.com
    Sample
          TS DVD sample.avi -
4.36 MB

    Subs
          subs.rar -
4.04 MB

          subs.sfv -
42 bytes

     The.Stepfather.DVDRIP.XviD.www.IWANNADOWNLOAD.com.avi -
696.73 MB



Description



http://i50.tinypic.com/sobafk.jpg


Filename:
The.Stepfather.2009.UNRATED.DVDRip.XviD-ARROW "Un Rarred"

Sample Video:
http://www.movshare.net/video/oqbg7ds5hryy3

http://www.imdb.com/title/tt0814335/

http://i47.tinypic.com/10x7ddg.png

http://i50.tinypic.com/nvzlhy.png

http://i47.tinypic.com/m73sjt.png



Format : AVI
Format/Info : Audio Video Interleave
File size : 697 MiB
Duration : 1h 42mn
Overall bit rate : 953 Kbps
Writing application : VirtualDubMod 1.5.10.2 (build 2540/release)
Writing library : VirtualDubMod build 2540/release

Video
ID : 0
Format : MPEG-4 Visual
Format profile : [email protected]
Format settings, BVOP : Yes
Format settings, QPel : No
Format settings, GMC : No warppoints
Format settings, Matrix : Default (H.263)
Codec ID : XVID
Codec ID/Hint : XviD
Duration : 1h 42mn
Bit rate : 812 Kbps
Width : 640 pixels
Height : 272 pixels
Display aspect ratio : 2.35:1
Frame rate : 23.976 fps
Resolution : 24 bits
Colorimetry : 4:2:0
Scan type : Progressive
Bits/(Pixel*Frame) : 0.194
Stream size : 593 MiB (85%)
Writing library : XviD 1.2.1 (UTC 2008-12-04)

Audio
ID : 1
Format : MPEG Audio
Format version : Version 1
Format profile : Layer 3
Format_Settings_Mode : Joint stereo / MS Stereo
Codec ID : 55
Codec ID/Hint : MP3
Duration : 1h 42mn
Bit rate mode : Variable
Bit rate : 129 Kbps
Nominal bit rate : 128 Kbps
Channel(s) : 2 channels
Sampling rate : 48.0 KHz
Resolution : 16 bits
Stream size : 94.4 MiB (14%)
Alignment : Aligned on interleaves
Interleave, duration : 24 ms (0.58 video frame)
Interleave, preload duration : 142 ms
Writing library : LAME3.90.
Encoding settings : -m j -V 4 -q 2 -lowpass 17.6 --abr 128

Michael returns home from military school to find his mother happily in love and living with her new boyfriend. As the two men get to know each other, he becomes more and more suspicious of the man who is always there with a helpful hand.


Related torrents

Torrent NameAddedSizeSeedLeechHealth
1 Year+ - in Movies707.75 MB10970
1 Year+ - in Movies700.77 MB281137
1 Year+ - in Movies705.13 MB14274
1 Year+ - in Movies696.73 MB305
1 Year+ - in Movies712.11 MB3310
1 Year+ - in Movies700.77 MB00

Comments (0 Comments)




Please login or create a FREE account to post comments

Latest Searches

| cr race | basic medical sciences MRCP | VK Box | buck king | Q U E emotions | Jam suicidegirls | The ring 2 dubbed | bloody roar game | kanye west sia wolves | the power of few 2013 720p bluray dts x264 publichd |