Quick Browse
Movies
TV shows
Music
Games
Applications
Anime
Other
Facebook
Advertising

Friends
Torrent Download
Movie4u
1337x.to
Torrent Downloads




Verified torrent The.Vampire.Diaries.S03E04.HDTV.XviD-2HD -Sebastian[Ub3r]


    Seeders : 63      Leechers : 102

Trackers List

Tracker NameLast CheckStatusSeedersLeechers




Torrent File Content (6 files)


The.Vampire.Diaries.S03E04.HDTV.XviD-2HD -Sebastian[Ub3r]
     The.Vampire.Diaries.S03E04.HDTV.XviD-2HD.avi -
350.81 MB

     The.Vampire.Diaries.S03E04.HDTV.jpg -
170.8 KB

     Info.txt -
2.21 KB

     Torrent downloaded from Demonoid.me.txt -
46 bytes

     Torrent Downloaded from Limetorrents.com.txt -
40 bytes

     Torrent downloaded from Extratorrent.com.txt -
40 bytes



Description



The.Vampire.Diaries.S03E04.HDTV.XviD-2HD
Format : AVI
Format/Info : Audio Video Interleave
File size : 351 MiB
Duration : 40mn 42s
Overall bit rate : 1 205 Kbps
Writing application : MEncoder SVN-r32669-4.3.2
Writing library : MPlayer
Video
ID : 0
Format : MPEG-4 Visual
Format profile : Advanced [email protected]
Format settings, BVOP : 2
Format settings, QPel : No
Format settings, GMC : No warppoints
Format settings, Matrix : Default (H.263)
Muxing mode : Packed bitstream
Codec ID : XVID
Codec ID/Hint : XviD
Duration : 40mn 41s
Bit rate : 1 064 Kbps
Width : 624 pixels
Height : 352 pixels
Display aspect ratio : 16:9
Frame rate : 23.976 fps
Color space : YUV
Chroma subsampling : 4:2:0
Bit depth : 8 bits
Scan type : Progressive
Compression mode : Lossy
Bits/(Pixel*Frame) : 0.202
Stream size : 310 MiB (88%)
Writing library : XviD 64
Audio
ID : 1
Format : MPEG Audio
Format version : Version 1
Format profile : Layer 3
Mode : Joint stereo
Codec ID : 55
Codec ID/Hint : MP3
Duration : 40mn 42s
Bit rate mode : Variable
Bit rate : 128 Kbps
Channel(s) : 2 channels
Sampling rate : 48.0 KHz
Compression mode : Lossy
Stream size : 37.3 MiB (11%)
Alignment : Aligned on interleaves
Interleave, duration : 24 ms (0.58 video frame)
Interleave, preload duration : 500 ms
Screenshots
http://i2.kastatic.com/users/9e05a34bf12609b40e0117002a322204.jpg

http://i2.kastatic.com/users/9406c69e1ffa1cc7f039853689e0dd56.gif

Related torrents

Torrent NameAddedSizeSeedLeechHealth
Verified torrent
1 Year+ - in TV shows126.54 MB00
Verified torrent
1 Year+ - in TV shows350.67 MB1458
Verified torrent
1 Year+ - in TV shows350.01 MB514495
Verified torrent
1 Year+ - in TV shows349.6 MB10142
Verified torrent
1 Year+ - in TV shows350.1 MB9527

Comments (0 Comments)




Please login or create a FREE account to post comments

Latest Searches

| teens like it big pic | S01E05 Frontier | Vicetone Cozi Zuehlsdorff | The White Balloon avi | archer season 01 episode 01 | mkv DCs Legends of Tomorrow S02E06 HDTV x264 LOL ettv | you neighbors and you | aidras sexual fantasy | HappyTugs Gina Go Gina | ludaverses vol 1 |