Quick Browse
Movies
TV shows
Music
Games
Applications
Anime
Other
Facebook
Advertising

Friends
Torrent Download
Movie4u
1337x.to
Torrent Downloads




Verified torrent The.Vampire.Diaries.S03E05.HDTV.XviD-Sebastian[Ub3r]


    Seeders : 0      Leechers : 0
Hash :218D163651C783087A1E9D8BE62C5C7C9B9A8361
Added :1 Year+ by sebastianUb3rVerified torrent uploader in TV shows
Size :350.76 MB
Stream :WATCH ONLINE @ Movie4u


The.Vampire.Diaries.S03E05.HDTV.XviD-Sebastian[Ub3r]
Free and Fast Download with Usenet 300GB+ free







Trackers List

Tracker NameLast CheckStatusSeedersLeechers




Torrent File Content (5 files)


The.Vampire.Diaries.S03E05.HDTV.XviD-Sebastian[Ub3r]
     The.Vampire.Diaries.S03E05.HDTV.XviD-Sebastian[Ub3r].avi -
350.6 MB

     The.Vampire.Diaries.S03E05.HDTV.jpg -
158.93 KB

     Torrent downloaded from Demonoid.me.txt -
46 bytes

     Torrent Downloaded from Limetorrents.com.txt -
40 bytes

     Torrent downloaded from Extratorrent.com.txt -
40 bytes



Description



The.Vampire.Diaries.S03E05.HDTV.XviD-Sebastian[Ub3r]
Format : AVI
Format/Info : Audio Video Interleave
File size : 351 MiB
Duration : 41mn 45s
Overall bit rate : 1 174 Kbps
Writing application : MEncoder VERSION
Writing library : MPlayer
Video
ID : 0
Format : MPEG-4 Visual
Format profile : Advanced [email protected]
Format settings, BVOP : 2
Format settings, QPel : No
Format settings, GMC : No warppoints
Format settings, Matrix : Default (H.263)
Codec ID : XVID
Codec ID/Hint : XviD
Duration : 41mn 45s
Bit rate : 1 037 Kbps
Width : 624 pixels
Height : 352 pixels
Display aspect ratio : 16:9
Frame rate : 23.976 fps
Color space : YUV
Chroma subsampling : 4:2:0
Bit depth : 8 bits
Scan type : Progressive
Compression mode : Lossy
Bits/(Pixel*Frame) : 0.197
Stream size : 310 MiB (88%)
Writing library : XviD 1.2.1 (UTC 2008-12-04)
Audio
ID : 1
Format : MPEG Audio
Format version : Version 1
Format profile : Layer 3
Mode : Joint stereo
Mode extension : MS Stereo
Codec ID : 55
Codec ID/Hint : MP3
Duration : 41mn 45s
Bit rate mode : Variable
Bit rate : 128 Kbps
Channel(s) : 2 channels
Sampling rate : 48.0 KHz
Compression mode : Lossy
Stream size : 37.0 MiB (11%)
Alignment : Aligned on interleaves
Interleave, duration : 24 ms (0.58 video frame)
Interleave, preload duration : 471 ms
Writing library : LAME3.90.
Encoding settings : -m j -V 4 -q 2 -lowpass 17.6 --abr 128
Screenshot
http://i2.kastatic.com/users/7a9820c2eeb363b4aa75eed8ff1fb90e.jpg

http://i2.kastatic.com/users/9406c69e1ffa1cc7f039853689e0dd56.gif

Related torrents

Torrent NameAddedSizeSeedLeechHealth
1 Year+ - in TV shows254.81 MB00
1 Year+ - in TV shows350.64 MB01
1 Year+ - in TV shows347.65 MB00
1 Year+ - in TV shows352.8 MB3154
1 Year+ - in TV shows352.8 MB103167

Comments (0 Comments)




Please login or create a FREE account to post comments

Latest Searches

| rb artists christmas songs | famous e | evasive angles 2007 | ebony porn | tuning honda | DCs Legends of Tomorrow S01E05 1080p HDTV | fuck you mr f a b | im talkin to you | 4 little pups | john all time |