Quick Browse
Movies
TV shows
Music
Games
Applications
Anime
Other
Facebook
Advertising

Friends
Torrent Download
Movie4u
1337x.to
Torrent Downloads




Verified torrent The.Vampire.Diaries.S03E06.HDTV.XviD-2HD - Sebastian[Ub3r]


    Seeders : 95      Leechers : 27

Trackers List

Tracker NameLast CheckStatusSeedersLeechers




Torrent File Content (5 files)


The.Vampire.Diaries.S03E06.HDTV.XviD-2HD - Sebastian[Ub3r]
     The.Vampire.Diaries.S03E06.HDTV.XviD-2HD - Sebastian[Ub3r].avi -
349.94 MB

     The.Vampire.Diaries.S03E06.HDTV.XviD-2HD - Sebastian[Ub3r].jpg -
165.21 KB

     Torrent downloaded from Demonoid.me.txt -
46 bytes

     Torrent Downloaded from Limetorrents.com.txt -
40 bytes

     Torrent downloaded from Extratorrent.com.txt -
40 bytes



Description



[color=black]The.Vampire.Diaries.S03E06.HDTV.XviD-2HD - Sebastian[Ub3r].avi[/color]
[color=black]Format : AVI[/color]
[color=black]Format/Info : Audio Video Interleave[/color]
[color=black]File size : 350 MiB[/color]
[color=black]Duration : 41mn 31s[/color]
[color=black]Overall bit rate : 1 178 Kbps[/color]
[color=black]Writing application : MEncoder SVN-r32669-4.3.2[/color]
[color=black]Writing library : MPlayer[/color]
[color=black]Video[/color]
[color=black]ID : 0[/color]
[color=black]Format : MPEG-4 Visual[/color]
[color=black]Format profile : Advanced [email protected][/color]
[color=black]Format settings, BVOP : 1[/color]
[color=black]Format settings, QPel : No[/color]
[color=black]Format settings, GMC : No warppoints[/color]
[color=black]Format settings, Matrix : Default (H.263)[/color]
[color=black]Muxing mode : Packed bitstream[/color]
[color=black]Codec ID : XVID[/color]
[color=black]Codec ID/Hint : XviD[/color]
[color=black]Duration : 41mn 31s[/color]
[color=black]Bit rate : 1 038 Kbps[/color]
[color=black]Width : 624 pixels[/color]
[color=black]Height : 352 pixels[/color]
[color=black]Display aspect ratio : 16:9[/color]
[color=black]Frame rate : 23.976 fps[/color]
[color=black]Color space : YUV[/color]
[color=black]Chroma subsampling : 4:2:0[/color]
[color=black]Bit depth : 8 bits[/color]
[color=black]Scan type : Progressive[/color]
[color=black]Compression mode : Lossy[/color]
[color=black]Bits/(Pixel*Frame) : 0.197[/color]
[color=black]Stream size : 308 MiB (88%)[/color]
[color=black]Writing library : XviD 1.2.1 (UTC 2008-12-04)[/color]
[color=black]Audio[/color]
[color=black]ID : 1[/color]
[color=black]Format : MPEG Audio[/color]
[color=black]Format version : Version 1[/color]
[color=black]Format profile : Layer 3[/color]
[color=black]Mode : Joint stereo[/color]
[color=black]Mode extension : MS Stereo[/color]
[color=black]Codec ID : 55[/color]
[color=black]Codec ID/Hint : MP3[/color]
[color=black]Duration : 41mn 31s[/color]
[color=black]Bit rate mode : Variable[/color]
[color=black]Bit rate : 128 Kbps[/color]
[color=black]Channel(s) : 2 channels[/color]
[color=black]Sampling rate : 48.0 KHz[/color]
[color=black]Compression mode : Lossy[/color]
[color=black]Stream size : 37.9 MiB (11%)[/color]
[color=black]Alignment : Aligned on interleaves[/color]
[color=black]Interleave, duration : 24 ms (0.58 video frame)[/color]
[color=black]Interleave, preload duration : 538 ms[/color]
[size=200]Screenshots[/size]
http://i2.kastatic.com/users/6a004b01752ecccc769e8e52d9dadf88.jpg

http://i2.kastatic.com/users/133df62bbf28e62494bb17fe11078f1a.gif


Related torrents

Torrent NameAddedSizeSeedLeechHealth
Verified torrent
1 Year+ - in TV shows126.54 MB00
Verified torrent
1 Year+ - in TV shows350.67 MB1458
Verified torrent
1 Year+ - in TV shows350.01 MB514495
Verified torrent
1 Year+ - in TV shows349.6 MB10142
Verified torrent
1 Year+ - in TV shows350.98 MB63102

Comments (0 Comments)




Please login or create a FREE account to post comments

Latest Searches

| Mon Oncle Charlie saison 1 a 10 | three 6 mafia | JulesJordan Lana Rhoades x265 | Mushroomhead out | Sensi Primordiali | American History February 2017 | real sex lanny | Supergirl S02E05 HDTV XviD | Oil And Anal Maddy O reilly Tiffany Doll | i don t look any further |