Quick Browse
Movies
TV shows
Music
Games
Applications
Anime
Other

Donate and Support

Friends
Torrents.me
Torrent Download
Free Movies
1337x
RARBG
Torrent Downloads

Verified torrent The.Vampire.Diaries.S03E07.HDTV.XviD-2HD -Sebastian[Ub3r]


    Seeders : 101      Leechers : 42
Hash :E4A3A3D2EB2577315CFE732BA0A6D66AABA356B2
Added :1 Year+ by sebastianUb3rVerified torrent uploader in TV shows
Size :349.6 MB
Stream :Watch Full Movies Online @ Movie4u
Share :








Warning! Do not Download Torrents Without a VPN!
Your IP Address is .   And Location is
Your Internet Provider and Government can track your torrent Activity!  Hide your IP ADDRESS with a VPN!
We Strongly Recommend Using SpyOFF Torrent VPN to Anonymize your Torrenting. It's FREE For 15 Days!

Note :

Please Update (Trackers Info) Before Downloading Torrents to See Updated Seeders And Leechers for Batter Download Speed.

Trackers List

Tracker NameLast CheckStatusSeedersLeechers




Torrent File Content (5 files)


The.Vampire.Diaries.S03E07.HDTV.XviD-2HD -Sebastian[Ub3r]
     The.Vampire.Diaries.S03E07.HDTV.XviD-2HD -Sebastian[Ub3r].avi -
349.46 MB

     The.Vampire.Diaries.S03E07.HDTV.XviD-2HD -Sebastian[Ub3r].jpg -
146.51 KB

     Torrent downloaded from Demonoid.me.txt -
46 bytes

     Torrent Downloaded from Limetorrents.com.txt -
40 bytes

     Torrent downloaded from Extratorrent.com.txt -
40 bytes



Description



The.Vampire.Diaries.S03E07.HDTV.XviD-2HD -Sebastian[Ub3r]
Format : AVI
Format/Info : Audio Video Interleave
File size : 349 MiB
Duration : 41mn 51s
Overall bit rate : 1 167 Kbps
Writing application : MEncoder SVN-r32669-4.3.2
Writing library : MPlayer
Video
ID : 0
Format : MPEG-4 Visual
Format profile : Advanced [email protected]
Format settings, BVOP : 1
Format settings, QPel : No
Format settings, GMC : No warppoints
Format settings, Matrix : Default (H.263)
Muxing mode : Packed bitstream
Codec ID : XVID
Codec ID/Hint : XviD
Duration : 41mn 51s
Bit rate : 1 027 Kbps
Width : 624 pixels
Height : 352 pixels
Display aspect ratio : 16:9
Frame rate : 23.976 fps
Color space : YUV
Chroma subsampling : 4:2:0
Bit depth : 8 bits
Scan type : Progressive
Compression mode : Lossy
Bits/(Pixel*Frame) : 0.195
Stream size : 308 MiB (88%)
Writing library : XviD 1.2.1 (UTC 2008-12-04)
Audio
ID : 1
Format : MPEG Audio
Format version : Version 1
Format profile : Layer 3
Mode : Joint stereo
Codec ID : 55
Codec ID/Hint : MP3
Duration : 41mn 51s
Bit rate mode : Variable
Bit rate : 128 Kbps
Channel(s) : 2 channels
Sampling rate : 48.0 KHz
Compression mode : Lossy
Stream size : 38.1 MiB (11%)
Alignment : Aligned on interleaves
Interleave, duration : 24 ms (0.58 video frame)
Interleave, preload duration : 481 ms
[color=red]Screenshots[/color]
http://i2.kastatic.com/users/7367fde7ab8b0e64c22b020563b78ac6.jpg

http://i2.kastatic.com/users/133df62bbf28e62494bb17fe11078f1a.gif
http://i2.kastatic.com/users/133df62bbf28e62494bb17fe11078f1a.gif


Related torrents

Torrent NameAddedSizeSeedLeechHealth
Verified torrent
1 Year+ - in TV shows126.54 MB00
Verified torrent
1 Year+ - in TV shows350.67 MB00
Verified torrent
1 Year+ - in TV shows350.01 MB00
Verified torrent
1 Year+ - in TV shows350.1 MB00
Verified torrent
1 Year+ - in TV shows350.98 MB00

Comments (0 Comments)




Please login or create a FREE account to post comments

Latest Searches

| body out | TeraByte Drive Image Backup Restore 3 11 | lungs itunes | el apocalipsis | Probablemente Christian Nodal David Bisbal | all i want skye | inside llewyn ost | n e x t too | Jessy Cumbitch | lap dance anal |