Quick Browse
Movies
TV shows
Music
Games
Applications
Anime
Other
Facebook
Advertising

Friends
Torrent Download
Movie4u
1337x.to
Torrent Downloads




Verified torrent The.Vampire.Diaries.S03E08.HDTV.XviD-2HD-Sebastian[Ub3r]


    Seeders : 514      Leechers : 495

Trackers List

Tracker NameLast CheckStatusSeedersLeechers




Torrent File Content (5 files)


The.Vampire.Diaries.S03E08.HDTV.XviD-2HD-Sebastian[Ub3r]
     The.Vampire.Diaries.S03E08.HDTV.XviD-2HD-Sebastian[Ub3r].avi -
349.86 MB

     The.Vampire.Diaries.S03E08.HDTV.XviD-2HD.jpg -
157.14 KB

     Torrent downloaded from Demonoid.me.txt -
46 bytes

     Torrent Downloaded from Limetorrents.com.txt -
40 bytes

     Torrent downloaded from Extratorrent.com.txt -
40 bytes



Description



The.Vampire.Diaries.S03E08.HDTV.XviD-2HD-Sebastian[Ub3r]
Format : AVI
Format/Info : Audio Video Interleave
File size : 350 MiB
Duration : 41mn 52s
Overall bit rate : 1 168 Kbps
Writing application : MEncoder SVN-r32669-4.3.2
Writing library : MPlayer
Video
ID : 0
Format : MPEG-4 Visual
Format profile : Advanced [email protected]
Format settings, BVOP : 1
Format settings, QPel : No
Format settings, GMC : No warppoints
Format settings, Matrix : Default (H.263)
Muxing mode : Packed bitstream
Codec ID : XVID
Codec ID/Hint : XviD
Duration : 41mn 52s
Bit rate : 1 027 Kbps
Width : 624 pixels
Height : 352 pixels
Display aspect ratio : 16:9
Frame rate : 23.976 fps
Color space : YUV
Chroma subsampling : 4:2:0
Bit depth : 8 bits
Scan type : Progressive
Compression mode : Lossy
Bits/(Pixel*Frame) : 0.195
Stream size : 308 MiB (88%)
Writing library : XviD 1.2.1 (UTC 2008-12-04)
Audio
ID : 1
Format : MPEG Audio
Format version : Version 1
Format profile : Layer 3
Mode : Joint stereo
Mode extension : MS Stereo
Codec ID : 55
Codec ID/Hint : MP3
Duration : 41mn 52s
Bit rate mode : Variable
Bit rate : 128 Kbps
Channel(s) : 2 channels
Sampling rate : 48.0 KHz
Compression mode : Lossy
Stream size : 38.5 MiB (11%)
Alignment : Aligned on interleaves
Interleave, duration : 24 ms (0.58 video frame)
Interleave, preload duration : 546 ms
[color=blue]Screens[/color]
http://i2.kastatic.com/users/2a5c7fec3f234b43cc4cb1e7bd736340.jpg

http://i2.kastatic.com/users/133df62bbf28e62494bb17fe11078f1a.gif
http://i2.kastatic.com/users/133df62bbf28e62494bb17fe11078f1a.gif

Related torrents

Torrent NameAddedSizeSeedLeechHealth
Verified torrent
1 Year+ - in TV shows126.54 MB00
Verified torrent
1 Year+ - in TV shows350.67 MB1458
Verified torrent
1 Year+ - in TV shows349.6 MB10142
Verified torrent
1 Year+ - in TV shows350.1 MB9527
Verified torrent
1 Year+ - in TV shows350.98 MB63102

Comments (0 Comments)




Please login or create a FREE account to post comments

Latest Searches

| Washington Irving epub | Michael Buble | Mandy Muse shemale | dota 1 movie | wga windows xp crack genuine | blair summers hair down | 2016 dezember | toxic thrash | west coast boyz | Witchbabe Erotic Witch Project 3 |