Quick Browse
Movies
TV shows
Music
Games
Applications
Anime
Other
Facebook
Advertising

Friends
Torrent Download
Movie4u
1337x.to
Torrent Downloads




Verified torrent The Adjustment Bureau (2011) DVDRip XviD-MAXSPEED


    Seeders : 0      Leechers : 0
Hash :DFCA56D5E649D4DFF8417785D87A8E9F34771C4A
Added :1 Year+ by piratepediaVerified torrent uploader in Movies
Size :1.48 GB
Stream :WATCH ONLINE @ Movie4u


The Adjustment Bureau (2011) DVDRip XviD-MAXSPEED
Free and Fast Download with Usenet 300GB+ free







Trackers List

Tracker NameLast CheckStatusSeedersLeechers




Torrent File Content (8 files)


The Adjustment Bureau (2011) DVDRip XviD-MAXSPEED
     The Adjustment Bureau (2011) DVDRip XviD-MAXSPEED www.torentz.3xforum.ro.avi -
1.47 GB

     sample.avi -
9.99 MB

     screencaps.jpeg -
580.97 KB

     The Adjustment Bureau (2011) DVDRip XviD-MAXSPEED.nfo -
2.72 KB

     Torrent downloaded from Demonoid.me.txt -
46 bytes

     Torrent downloaded from Extratorrent.com.txt -
40 bytes

     Torrent downloaded from Rarbg.com.txt -
33 bytes

     Torrent downloaded from h33t.com.txt -
32 bytes



Description



http://leetleech.org/images/71294291872438195111.jpg


Screens:

http://leetleech.org/images/72452218785861464453.jpg

http://leetleech.org/images/44455251717793435858.jpg

http://leetleech.org/images/98883997855592699527.jpg

http://leetleech.org/images/21230314931102647914.jpg


Alternative:

[code]http://www.postimg.com/image/39000/photo-38491.jpg
http://www.postimg.com/image/39000/photo-38492.jpg
http://www.postimg.com/image/39000/photo-38493.jpg
http://www.postimg.com/image/39000/photo-38494.jpg[/code]

ScreenCaps:

http://www.postimg.com/39000/photo-38495.jpg


[code]The Adjustment Bureau (2011) DVDRip XviD-MAXSPEED
Format : AVI
Format/Info : Audio Video Interleave
Format profile : OpenDML
File size : 1.47 GiB
Duration : 1h 45mn
Overall bit rate : 1 990 Kbps
Writing application : VirtualDubMod 1.5.10.2 (build 2542/release)
Writing library : VirtualDubMod build 2542/release
Original source form : MAX TORRENTZ
Copyright : SIGISMUNT

Video
ID : 0
Format : MPEG-4 Visual
Format profile : [email protected]
Format settings, BVOP : Yes
Format settings, QPel : No
Format settings, GMC : No warppoints
Format settings, Matrix : Default (H.263)
Codec ID : XVID
Codec ID/Hint : XviD
Duration : 1h 45mn
Bit rate : 1 537 Kbps
Width : 720 pixels
Height : 384 pixels
Display aspect ratio : 1.875
Frame rate : 23.976 fps
Resolution : 24 bits
Colorimetry : 4:2:0
Scan type : Progressive
Bits/(Pixel*Frame) : 0.232
Stream size : 1.14 GiB (77%)
Writing library : XviD 1.2.1 (UTC 2008-12-04)

Audio
ID : 1
Format : AC-3
Format/Info : Audio Coding 3
Codec ID : 2000
Duration : 1h 45mn
Bit rate mode : Constant
Bit rate : 448 Kbps
Channel(s) : 6 channels
Channel positions : Front: L C R, Surround: L R, LFE
Sampling rate : 48.0 KHz
Stream size : 339 MiB (23%)
Alignment : Aligned on interleaves
Interleave, duration : 64 ms (1.53 video frames)
Interleave, preload duration : 192 ms

Source: DVD (perfect a/v/synn quality,sample included)
Thanks for waiting a better quality than 700mb DEFACED as usual bad encodes
This release is not seedbox supported , please seed it to the MAX

How To Get Your Maxspeed (uTorrent)

Torrent Client - Preferences - Bandwidth - Number of connections - Set aprox. 500 for each
Torrent Client - Preferences - BiTorrent - Protocol Encryption - Forced
Bandwidth Allocation - High (Set download/upload limit - Unlimited)
Stop Other Active Torrents - Start downloading and wait for connections.
Enjoy and Seed for at least 1:1 ratio. Don't forget to say thanks/leave reviews.
Before downloading you should check/google search sample "release name""sample".
Greets to all actual/future p2p/scene QUALITY groups and affiliate websites.
Don't trust IMDb robot or bad ratings,always watch some trailers first.
Ignore stupid comments/fake/mislabeled/no-DVDrips/CAM/TS/RAR uploads.
Please spread this release/torrent to your friends/forums/etc.
If you need translation subs visit some subtitles sites.
Report if you see online streaming or other spam links.
Recommended movie player VLC PLAYER.[/code]

Related torrents

Torrent NameAddedSizeSeedLeechHealth
1 Year+ - in Movies684.16 MB20
1 Year+ - in Movies684.96 MB1,24110
1 Year+ - in Movies1.48 GB01
1 Year+ - in Games1.47 GB02
1 Year+ - in Applications1.47 GB00
1 Year+ - in Applications1.47 GB01

Comments (0 Comments)




Please login or create a FREE account to post comments

Latest Searches

| mozart the complete | droste epub | happy album | 3 documentary | di fulvio epub | Tron 1982 iNTERNAL BDRip x264 TABULARiA | Entourage A Parody Entourage A Parody | coffin 2011 1080p bluray x264 dts fgt | doppia personalita | E L gh |