Quick Browse
Movies
TV shows
Music
Games
Applications
Anime
Other
Facebook
Advertising

Friends
Torrent Download
Movie4u
1337x.to
Torrent Downloads




Verified torrent The Adventures of Tintin (2011) DVDRip XviD-MAXSPEED


    Seeders : 160      Leechers : 1698
Hash :787EF786D1FF50A7AF518E81BDE4A2B71E7DE358
Added :1 Year+ by piratepediaVerified torrent uploader in Movies
Size :1.63 GB
Stream :WATCH ONLINE @ Movie4u


The Adventures of Tintin (2011) DVDRip XviD-MAXSPEED
Free and Fast Download with Usenet 300GB+ free







Trackers List

Tracker NameLast CheckStatusSeedersLeechers




Torrent File Content (8 files)


The Adventures of Tintin (2011) DVDRip XviD-MAXSPEED
     The Adventures of Tintin (2011) DVDRip XviD-MAXSPEED www.torentz.3xforum.ro.avi -
1.61 GB

     sample.avi -
19.08 MB

     screencaps.jpeg -
589.11 KB

     The Adventures of Tintin (2011) DVDRip XviD-MAXSPEED.nfo -
2.61 KB

     Torrent downloaded from Demonoid.me.txt -
46 bytes

     Torrent downloaded from Extratorrent.com.txt -
40 bytes

     Torrent downloaded from Rarbg.com.txt -
33 bytes

     Torrent downloaded from h33t.com.txt -
32 bytes



Description



http://www.hotimg.com/direct/zk2cqH3.jpg


Screens:

http://www.hotimg.com/direct/cHp6DDz.jpg

http://www.hotimg.com/direct/NKxdrRa.jpg

http://www.hotimg.com/direct/nzAdWTK.jpg

http://www.hotimg.com/direct/NEa53Z5.jpg


Alternative:

[code]http://www.postimg.com/image/61000/photo-60538.jpg
http://www.postimg.com/image/61000/photo-60539.jpg
http://www.postimg.com/image/61000/photo-60540.jpg
http://www.postimg.com/image/61000/photo-60541.jpg[/code]

ScreenCaps:

http://www.postimg.com/61000/photo-60542.jpg


[code]The Adventures of Tintin (2011) DVDRip XviD-MAXSPEED
Format : AVI
Format/Info : Audio Video Interleave
File size : 1.61 GiB
Duration : 1h 46mn
Overall bit rate : 2 157 Kbps
Writing application : VirtualDubMod 1.5.10.2 (build 2542/release)
Writing library : VirtualDubMod build 2542/release
Original source form : MAX TORRENTZ
Copyright : SIGISMUNT

Video
ID : 0
Format : MPEG-4 Visual
Format profile : [email protected]
Format settings, BVOP : Yes
Format settings, QPel : No
Format settings, GMC : No warppoints
Format settings, Matrix : Default (H.263)
Codec ID : XVID
Codec ID/Hint : XviD
Duration : 1h 46mn
Bit rate : 1 700 Kbps
Width : 720 pixels
Height : 304 pixels
Display aspect ratio : 2.35:1
Frame rate : 23.976 fps
Resolution : 24 bits
Colorimetry : 4:2:0
Scan type : Progressive
Bits/(Pixel*Frame) : 0.324
Stream size : 1.27 GiB (79%)
Writing library : XviD 1.2.1 (UTC 2008-12-04)

Audio
ID : 1
Format : AC-3
Format/Info : Audio Coding 3
Codec ID : 2000
Duration : 1h 46mn
Bit rate mode : Constant
Bit rate : 448 Kbps
Channel(s) : 6 channels
Channel positions : Front: L C R, Surround: L R, LFE
Sampling rate : 48.0 KHz
Stream size : 342 MiB (21%)
Alignment : Split accross interleaves
Interleave, duration : 42 ms (1.00 video frame)
Interleave, preload duration : 500 ms

Source: DVD (perfect a/v/sync quality,sample included)
This torrent is not seedbox supported,please seed it to the MAX

Note: We need anything you can offer as early releases,seedboxes,links,accounts,etc
please contact us on piratepedia[@]msn/gmail.com or our website torentz 3xforum ro

How To Get Your Maxspeed (uTorrent)

Torrent Client - Preferences - Bandwidth - Number of connections - Set aprox. 500 for each
Torrent Client - Preferences - BiTorrent - Protocol Encryption - Forced
Bandwidth Allocation - High (Set download/upload limit - Unlimited)
Stop Other Active Torrents - Start downloading and wait for connections.
Enjoy and Seed for at least 1:1 ratio. Don't forget to say thanks/leave reviews.
Before downloading you should check/google search sample "release name""sample".
Greets to all actual/future p2p/scene QUALITY groups and affiliate websites.
Don't trust IMDb robot or bad ratings,always watch some trailers first.
Ignore stupid comments/fake/mislabeled/no-DVDrips/CAM/TS/RAR uploads.
Please spread this release/torrent to your friends/forums/etc.
If you need translation subs visit some subtitles sites.
Report if you see online streaming or other spam links.
Recommended movie player VLC PLAYER.[/code]

Related torrents

Torrent NameAddedSizeSeedLeechHealth
5 months ago - in Movies1.06 GB00
5 months ago - in Other2.19 GB00
7 months ago - in Movies1.93 GB00
7 months ago - in Movies2 GB00
8 months ago - in Movies1.01 GB00

Comments (0 Comments)




Please login or create a FREE account to post comments

Latest Searches

| TakeVan Lola | xbox 360 installation pack | upside down 3d | one piece manga 61 | Lorena Di Capri | YG why always hatin | Office S08e18 720p | 5 cent if i cant cant | Star Trek The Next Generation Season 5 Disk 3 TBS The I | dj saur |