Quick Browse
Movies
TV shows
Music
Games
Applications
Anime
Other
Facebook
Advertising

Friends
Torrent Download
Movie4u
1337x.to
Torrent Downloads




Verified torrent The Angrez 2006 Hindi XViD.DvDRip [email protected]


    Seeders : 2      Leechers : 0

Trackers List

Tracker NameLast CheckStatusSeedersLeechers




Torrent File Content (4 files)


The Angrez 2006.XViD.DvDRip -- vicky
     The Angrez 2006.XViD.DvDRip.CD1 -- vicky.avi -
701.42 MB

     The Angrez 2006.XViD.DvDRip.CD2 -- vicky.avi -
697.21 MB

     The Angrez 2006.XViD.DvDRip.CD1 -- vicky.srt -
82.32 KB

     The Angrez 2006.XViD.DvDRip.CD2 -- vicky.srt -
66.65 KB



Description



[color=green][font=Georgia]The Angrez 2006.XViD.DvDRip.CD1

Format : AVI
Format/Info : Audio Video Interleave
File size : 701 MiB
Duration : 56mn 57s
Overall bit rate : 1 722 Kbps
Writing application : VirtualDubMod 1.5.10.2 (build 2540/release)
Writing library : VirtualDubMod build 2540/release

Video
ID : 0
Format : MPEG-4 Visual
Format profile : Advanced [email protected]
Format settings, BVOP : Yes
Format settings, QPel : Yes
Format settings, GMC : No warppoints
Format settings, Matrix : Custom
Codec ID : XVID
Codec ID/Hint : XviD
Duration : 56mn 57s
Bit rate : 1 582 Kbps
Width : 640 pixels
Height : 272 pixels
Display aspect ratio : 2.35:1
Frame rate : 29.970 fps
Color space : YUV
Chroma subsampling : 4:2:0
Bit depth : 8 bits
Scan type : Progressive
Bits/(Pixel*Frame) : 0.303
Stream size : 645 MiB (92%)
Writing library : XviD 1.2.0SMP (UTC 2006-01-08)

Audio
ID : 1
Format : MPEG Audio
Format version : Version 1
Format profile : Layer 3
Mode : Joint stereo
Mode extension : MS Stereo
Codec ID : 55
Codec ID/Hint : MP3
Duration : 56mn 57s
Bit rate mode : Constant
Bit rate : 128 Kbps
Channel(s) : 2 channels
Sampling rate : 48.0 KHz
Stream size : 52.2 MiB (7%)
Alignment : Aligned on interleaves
Interleave, duration : 33 ms (1.00 video frame)
Interleave, preload duration : 504 ms
Writing library : LAME3.98a



The Angrez 2006.XViD.DvDRip.CD2

Format : AVI
Format/Info : Audio Video Interleave
File size : 697 MiB
Duration : 53mn 47s
Overall bit rate : 1 812 Kbps
Writing application : VirtualDubMod 1.5.10.2 (build 2540/release)
Writing library : VirtualDubMod build 2540/release

Video
ID : 0
Format : MPEG-4 Visual
Format profile : Advanced [email protected]
Format settings, BVOP : Yes
Format settings, QPel : Yes
Format settings, GMC : No warppoints
Format settings, Matrix : Custom
Codec ID : XVID
Codec ID/Hint : XviD
Duration : 53mn 47s
Bit rate : 1 672 Kbps
Width : 640 pixels
Height : 272 pixels
Display aspect ratio : 2.35:1
Frame rate : 29.970 fps
Color space : YUV
Chroma subsampling : 4:2:0
Bit depth : 8 bits
Scan type : Progressive
Bits/(Pixel*Frame) : 0.321
Stream size : 643 MiB (92%)
Writing library : XviD 1.2.0SMP (UTC 2006-01-08)

Audio
ID : 1
Format : MPEG Audio
Format version : Version 1
Format profile : Layer 3
Mode : Joint stereo
Mode extension : MS Stereo
Codec ID : 55
Codec ID/Hint : MP3
Duration : 53mn 47s
Bit rate mode : Constant
Bit rate : 128 Kbps
Channel(s) : 2 channels
Sampling rate : 48.0 KHz
Stream size : 49.2 MiB (7%)
Alignment : Aligned on interleaves
Interleave, duration : 33 ms (1.00 video frame)
Interleave, preload duration : 504 ms
Writing library : LAME3.98 (alpha)
[/font][/color]

http://img413.imageshack.us/img413/5223/42047817.jpg

http://img716.imageshack.us/img716/1706/38059720.jpg

http://img835.imageshack.us/img835/1525/10668158.jpg

http://img828.imageshack.us/img828/9313/72686002.jpg

http://img831.imageshack.us/img831/5980/53847604.jpg

http://img830.imageshack.us/img830/4737/78462221.jpg

http://img178.imageshack.us/img178/7488/81786454.jpg


Related torrents

Torrent NameAddedSizeSeedLeechHealth
Verified torrent
1 Year+ - in Movies511.72 MB26
1 Year+ - in Movies1.45 GB241
Verified torrent
1 Year+ - in Movies1.36 GB00
1 Year+ - in Movies374.06 MB08
1 Year+ - in Movies706.39 MB00

Comments (0 Comments)




Please login or create a FREE account to post comments

Latest Searches

| butt dec 7 | all 720p 19 | Alyssa Lynn x265 | grand theft audio 5 | Young Love Part Two Jojo Kiss Iris Rose | blue lonesome rolling stones | 2016BRRip XviD AC3 EVO | Game of Thrones S05E02 720p HDTV x265 ShAaNiG mkv | tha joker we | ass dec 7 |