Quick Browse
Movies
TV shows
Music
Games
Applications
Anime
Other
Facebook
Advertising

Friends
Torrent Download
Movie4u
1337x.to
Torrent Downloads




Verified torrent The Attic [DVD] [ENG] [AC3] [Hannspree]


    Seeders : 2      Leechers : 3
Hash :1201B50C589C376FF0EA9150B847DC700E59421E
Added :1 Year+ by HannspreeVerified torrent uploader in Movies
Size :1.28 GB
Stream :WATCH ONLINE @ Movie4u


The Attic [DVD] [ENG] [AC3] [Hannspree]
Free and Fast Download with Usenet 300GB+ free







Trackers List

Tracker NameLast CheckStatusSeedersLeechers




Torrent File Content (14 files)


The Attic
    The Attic [DVD]
          VIDEO_TS/VIDEO_TS.BUP -
6 KB

          VIDEO_TS/VIDEO_TS.IFO -
6 KB

          VIDEO_TS/VTS_01_0.BUP -
56 KB

          VIDEO_TS/VTS_01_0.IFO -
56 KB

          VIDEO_TS/VTS_01_1.VOB -
1023.97 MB

          VIDEO_TS/VTS_01_2.VOB -
287.61 MB

    The Attic [Screens]
          The Attic Screens.jpg -
128.86 KB

     The Attic.NFO -
3.75 KB

     Torrent downloaded from Ahashare.com.txt -
47 bytes

     Torrent downloaded from Demonoid.com.txt -
47 bytes

     Torrent downloaded from Genesis-sp.org.txt -
49 bytes

     Torrent downloaded from H33t.org.txt -
43 bytes

     Torrent downloaded from Limetorrents.com.txt -
51 bytes

     Torrent downloaded from Torrentsnet.com.txt -
48 bytes



Description



=====================================================================================
[ Another free, high quality, ready to burn DVD I will be adding new torrents on a daily basis - Remember to seed ]
=====================================================================================
MOVIE TITLE: The Attic
LANGUAGE: English
MOVIE SUBS: No
BURN TESTED: Yes
FORMAT: Pal
GENRE: Horror | Thriller
RUNTIME: 88 Minutes
YEAR: 2008
IMDB LINK: http://www.imdb.com/title/tt0485857/
=====================================================================================
MOVIE DESC:

After moving to an old house with her family, Emma Callan is agoraphobic and haunted by a doppelganger that lives in the attic. Emma stops going to college and has friction with her father Graham. When Emma is attacked by the ghost in the attic, she is sent to therapy with Dr. Perry by her mother Kim; only Detective John Trevor believes in her statement and he helps Emma to investigate her doppelganger. When her brother Frankie Callan is slashed in the throat, Trevor gives a gun to Emma for her self-protection.
=====================================================================================
MOVIE SPECS:

GENERAL:
Complete name : The Attic
Format : MPEG-PS
File size : 1.28 GB
Duration : 88 Minutes
Overall bit rate : 2 205 Kbps

VIDEO:
ID : 224 (0xE0)
Format : MPEG Video
Format version : Version 2
Format profile : [email protected]
Format settings, BVOP : Yes
Format settings, Matrix : Default
Duration : 88 Minutes
Bit rate mode : Variable
Bit rate : 1 969 Kbps
Nominal bit rate : 8 808 Kbps
Width : 720 pixels
Height : 576 pixels
Display aspect ratio : 16:9
Frame rate : 24.000 fps
Standard : PAL
Color space : YUV
Chroma subsampling : 4:2:0
Bit depth : 8 bits
Scan type : Progressive
Scan order : 2:2:2:2:2:2:2:2:2:2:2:3 Pulldown
Bits/(Pixel*Frame) : 0.198
Stream size : 914 MiB (89%)

AUDIO:
ID : 128 (0x80)
Format : AC-3
Format/Info : Audio Coding 3
Mode extension : CM (complete main)
Duration : 88 Minutes
Bit rate mode : Constant
Bit rate : 192 Kbps
Channel(s) : 2 channels
Channel positions : Front: L R
Sampling rate : 48.0 KHz
Stream size : 89.2 MiB (9%)
=====================================================================================
TRACKERS:
http://inferno.demonoid.com:3400/announce
http://pow7.com/announce
http://publicbt.ath.cx/announce
http://tracker.torrentbox.com:2710/announce
http://atrack.pow7.com/announce
http://denis.stalker.h3q.com:6969/announce
http://nemesis.1337x.org/announce
http://exodus.1337x.org/announce
http://tracker.publicbt.com/announce
http://10.rarbg.com/announce
http://tracker.ilibr.org:6969/announce
http://rt.beeretracker.net/announce.php
=====================================================================================
FOOT NOTE:
If you are happy with this download, it would be nice to hear your views or comments that you might have. Enjoy
=====================================================================================

Related torrents

Torrent NameAddedSizeSeedLeechHealth
Verified torrent
1 Year+ - in Movies1.53 GB62
Verified torrent
1 Year+ - in Movies1.7 GB186
Verified torrent
1 Year+ - in Movies1.34 GB56
Verified torrent
1 Year+ - in Movies1.55 GB229
1 Good
Verified torrent
1 Year+ - in Movies1.63 GB239

Comments (0 Comments)




Please login or create a FREE account to post comments

Latest Searches

| highway 01 | open my bed | spotify c | home michael christmas | the sun trilogy | Crouching TigerHidden Dragon soundtrack | The Vampire Diaries S05E11 HDTV x264 ChameE | lamberto bava demons 2 | red buck | albedo 2 |