Quick Browse
Movies
TV shows
Music
Games
Applications
Anime
Other
Facebook
Friends
Torrent Download
Free Movies
1337x.to
Torrent Downloads

Verified torrent The Awakening 2012 CAM READNFO XViD - INSPiRAL


    Seeders : 0      Leechers : 0
Hash :7AFEE4210C6AD5B30891DE55C3AA74227EA2B8D8
Added :1 Year+ by memory100Verified torrent uploader in Movies
Size :1.87 GB
Stream :Watch Full Movies Online @ Movie4u
Share :


The Awakening 2012 CAM READNFO XViD - INSPiRAL
Anonymous and Direct Download 300GB+ free







Warning! Do not Download Torrents Without a VPN!
Your IP Address is .   And Location is
Your Internet Provider and Government can track your torrent Activity!  Hide your IP ADDRESS with a VPN!
We Strongly Recommend Using OneVPN’s Torrent VPN to Anonymize your Torrenting. It's Very Cheap!

Note :

Please Update (Trackers Info) Before Downloading Torrents to See Updated Seeders And Leechers for Batter Download Speed.

Trackers List

Tracker NameLast CheckStatusSeedersLeechers




Torrent File Content (7 files)


The Awakening 2012 CAM READNFO XViD - INSPiRAL
     att-networks.com.txt -
39 bytes

     sceneunderground.org.txt -
77 bytes

     Torrent downloaded from Demonoid.me.txt -
46 bytes

     The Awakening 2012 CAM READNFO XViD - INSPiRAL.nfo -
4.18 KB

     SAMPLE - INSPiRAL.avi -
23.98 MB

     The Awakening 2012 CAM READNFO XViD - INSPiRAL.avi -
1.85 GB

     HDSceneRG.txt -
115 bytes



Description



http://img705.imageshack.us/img705/7605/awakek.jpg

[code]
TITLE:

The Awakening 2012 CAM READNFO XViD - INSPiRAL

IMDB:

http://www.imdb.com/title/tt1687901/

Plot:
1921 England is overwhelmed by the loss and grief of World War I. Hoax exposer Florence Cathcart visits a boarding school to explain sightings of a child ghost. Everything she knew in unravels as the 'missing' begin to show themselves.

SOURCES:

VIDEO - 4gig mkv 26K THANKS
AUDIO - 4gig mkv 26k THANKS
SUBS - None Add

STATS:

Video
ID : 0
Format : MPEG-4 Visual
Format profile : Advanced [email protected]
Format settings, BVOP : 2
Format settings, QPel : No
Format settings, GMC : No warppoints
Format settings, Matrix : Default (MPEG)
Muxing mode : Packed bitstream
Codec ID : XVID
Codec ID/Hint : XviD
Duration : 1h 34mn
Bit rate : 2 653 Kbps
Width : 720 pixels
Height : 304 pixels
Display aspect ratio : 2.35:1
Frame rate : 25.000 fps
Color space : YUV
Chroma subsampling : 4:2:0
Bit depth : 8 bits
Scan type : Progressive
Compression mode : Lossy
Bits/(Pixel*Frame) : 0.485
Stream size : 1.76 GiB (95%)
Writing library : XviD 64

Audio
ID : 1
Format : MPEG Audio
Format version : Version 1
Format profile : Layer 3
Codec ID : 55
Codec ID/Hint : MP3
Duration : 1h 34mn
Bit rate mode : Constant
Bit rate : 128 Kbps
Channel(s) : 2 channels
Sampling rate : 44.1 KHz
Compression mode : Lossy
Stream size : 86.9 MiB (5%)
Alignment : Split accross interleaves
Interleave, duration : 40 ms (1.00 video frame)
Interleave, preload duration : 500 ms


NOTES:

Wow that was a mission and half right the video was pretty poor,full of noise,lack of colour and basically
pretty poo.Audio was even worse ...one of the worse cam audios i've heard and also was oos in parts and had repeated
lines and non english audio added for gaps where cam audio was missing ....it was piss poor IMHO.
Work done ....shit loads.
Audio first ...well stripped it and ran him,hiss,noise filters all over it,changed all the EQ levels and resaved.
Now for the worse part ...for some reason the whole file was oos when muxing to my rip so had to resync the lot arghh.
36 i had to make ranging from 22 secs to 10mins.....so considering i had to do this i have also opted to remove the non
eng audio parts inc the video ....seems pretty pointless have audio that doesn't even match the video lol.
Video ....needed more than some TLC ...but with lots of love we got there First maded a small script to load into vdub
which was only really contained heavy noise filter.From there i opted to used loads of filters from vdub ...HQ smoother,rgb eq
chroma,brightness,contrast sharpness ...
Basically the video almost looks like a totally new source now ,but must say from time to time the colour does go slightly
out ...but thats because the source files did.
Readnfo part is basically too warn you the audio STILL sucks donkey balls and there might be a few odd audio slips....but if
u want it now,this is the best your going to get i'm afraid.

[/code]
Screens:
http://img812.imageshack.us/img812/6053/92605660.png

http://img830.imageshack.us/img830/6763/40503352.png

http://img718.imageshack.us/img718/8250/48710305.png

http://img46.imageshack.us/img46/6642/10114221.png

http://img51.imageshack.us/img51/4823/24280415.png

http://img705.imageshack.us/img705/7315/61282117.png

Related torrents

Torrent NameAddedSizeSeedLeechHealth
1 Year+ - in Movies2.31 GB120
1 Year+ - in Movies1.11 GB00
1 Comments
1 Good
1 Year+ - in Movies1.11 GB00
1 Year+ - in Movies1.41 GB7165
1 Year+ - in Movies1.41 GB164106

Comments (0 Comments)




Please login or create a FREE account to post comments

Latest Searches

| sing 2016 720p mkvcage | Terri Anne Browning wants | eyewitness the war | Speed Is the New Black S01E01 HDTV x264 AVIDITY | mmg 0 | Terri Anne Browning shatters | velvet night velvet night | itunes hdrip | mud tractors and | Im a bird mother |