Quick Browse
Movies
TV shows
Music
Games
Applications
Anime
Other
Facebook
Advertising

Friends
Torrent Download
Movie4u
1337x.to
Torrent Downloads




Verified torrent The Awakening LIMITED 2011 720p BRRip XviD AC3-26k


    Seeders : 1      Leechers : 0
Hash :AF60986222CF9B0CE099C5B64D834805A5DFACA3
Added :1 Year+ by memory100Verified torrent uploader in Movies
Size :1.89 GB
Stream :WATCH ONLINE @ Movie4u


The Awakening LIMITED 2011 720p BRRip XviD AC3-26k
Free and Fast Download with Usenet 300GB+ free







Trackers List

Tracker NameLast CheckStatusSeedersLeechers




Torrent File Content (15 files)


The Awakening LIMITED 2011 720p BRRip XviD AC3-26k
     1.png -
884.02 KB

     2.png -
453.56 KB

     26k nfo.nfo -
3.53 KB

     3.png -
473.21 KB

     4.png -
435.92 KB

     HDSceneRG.txt -
115 bytes

    Subs
          mhd-tawakening-1080p.subs.rar -
1.3 MB

          mhd-tawakening-1080p.subs.sfv -
40 bytes

     The Awakening LIMITED 2011 720p BRRip XviD AC3-26k.avi -
1.89 GB

     The Awakening LIMITED 2011 720p BRRip XviD AC3-26k.jpg -
114.13 KB

     Torrent downloaded from Demonoid.me.txt -
46 bytes

     Torrent downloaded from rarbg.com.txt.txt -
0 bytes

     YouTube Latest Releases And Archive.txt -
76 bytes

     att-networks.com.txt -
39 bytes

     sceneunderground.org.txt -
77 bytes



Description



http://img189.imageshack.us/img189/4576/awaker.jpg

[code]

The Awakening LIMITED 2011 720p BRRip XviD AC3-26k

http://www.imdb.com/title/tt1687901/

Plot:
1921 England is overwhelmed by the loss and grief of World War I. Hoax exposer Florence Cathcart visits a
boarding school to explain sightings of a child ghost. Everything she knew in unravels as the 'missing'
begin to show themselves.

Sources - The.Awakening.LIMITED.1080p.Bluray.x264-MAXHD.....Thanks :P

Format : AVI
Format/Info : Audio Video Interleave
File size : 1.89 GiB
Duration : 1h 46mn
Overall bit rate : 2 530 Kbps

Video
ID : 0
Format : MPEG-4 Visual
Format profile : Advanced [email protected]
Format settings, BVOP : 2
Format settings, QPel : No
Format settings, GMC : No warppoints
Format settings, Matrix : Default (H.263)
Codec ID : XVID
Codec ID/Hint : XviD
Duration : 1h 46mn
Bit rate : 1 883 Kbps
Width : 1 280 pixels
Height : 544 pixels
Display aspect ratio : 2.35:1
Frame rate : 23.976 fps
Color space : YUV
Chroma subsampling : 4:2:0
Bit depth : 8 bits
Scan type : Progressive
Compression mode : Lossy
Bits/(Pixel*Frame) : 0.113
Stream size : 1.40 GiB (74%)
Writing library : XviD 1.2.1 (UTC 2008-12-04)

Audio
ID : 1
Format : AC-3
Format/Info : Audio Coding 3
Mode extension : CM (complete main)
Codec ID : 2000
Duration : 1h 46mn
Bit rate mode : Constant
Bit rate : 640 Kbps
Channel(s) : 6 channels
Channel positions : Front: L C R, Side: L R, LFE
Sampling rate : 48.0 KHz
Bit depth : 16 bits
Compression mode : Lossy
Stream size : 488 MiB (25%)
Alignment : Aligned on interleaves
Interleave, duration : 64 ms (1.53 video frames)
Interleave, preload duration : 192 ms





Notes -

Did my thing... turned out real nice.....enjoy

[/code]

Screens:
http://i.imgur.com/t7LG4.jpg

http://img444.imageshack.us/img444/6836/37597779.png

http://img41.imageshack.us/img41/9076/86650526.png

http://img826.imageshack.us/img826/2323/69475421.png

http://img694.imageshack.us/img694/616/theawakeninglimited2011.jpg


Greetz:
Xtreme Encode|FYA|ILLUMANTI|CM8|RX|VISI​ON|HDSCENE|xTriLL|DTRG|CRYS|REMIX​HD|BIDA|RX|REFILL|INSPiRAL|SIC|
|HO​PE|Anonymous|GooN|miRaGe
To all the people who have helped me you know who you are

Anything to offer email us @: [email protected]


http://img851.imageshack.us/img851/5503/26ks.jpg

Thank you smallz for banner!

Related torrents

Torrent NameAddedSizeSeedLeechHealth
Verified torrent
1 Year+ - in Movies1.67 GB00
Verified torrent
1 Year+ - in Movies2.39 GB10
Verified torrent
1 Year+ - in Movies2.78 GB11
Verified torrent
1 Year+ - in Movies1.93 GB00
Verified torrent
1 Year+ - in Movies2.94 GB10

Comments (0 Comments)




Please login or create a FREE account to post comments

Latest Searches

| J Cole Pass Me By | Bailey D Brand New | Tranny Bathroom | covet epub | Bonnie Dobson Morning Dew | BrazzersExxtra Maddy O reilly | streets is watching young money | assassin creed 4 crack v10 | agent greg | Ueberschall Elastik Player v2 0 9 |