Quick Browse
TV shows

Latest Articles

Torrent Download
Free Movies
Torrent Downloads

Verified torrent The Big Bang Theory S04e04 - The Hot Troll Deviation [XviD - Eng Mp3] HDTVRip by FQM [TNT Vilage]

    Seeders : 1      Leechers : 2

Warning! Do not Download Torrents Without a VPN!
Your IP Address is .   And Location is
Your Internet Provider and Government can track your torrent Activity!  Hide your IP ADDRESS with a VPN!
We Strongly Recommend Using CyberGhost VPN to Anonymize your Torrenting.

Note :

Please Update (Trackers Info) Before Downloading Torrents to See Updated Seeders And Leechers for Batter Download Speed.

Trackers List

Tracker NameLast CheckStatusSeedersLeechers
udp://tracker.coppersurfer.tk:803 months agosuccess10
udp://tracker.zond.org:80/announce3 months agosuccess00
http://tracker.istole.it/announce3 months agosuccess00
http://bigfoot1942.sektori.org:6969/announce3 months agosuccess00
http://announce.torrentsmd.com:6969/announce3 months agosuccess00
http://tracker.tntvillage.scambioetico.org:2710/announce3 months agosuccess02
udp://tracker.tntvillage.scambioetico.org:2710/announce3 months agosuccess02
udp://open.demonii.com:803 months agosuccess00
http://exodus.desync.com:6969/announce3 months agosuccess00
udp://tracker.ilibr.org:6969/announce3 months agosuccess00
http://tracker.best-torrents.net:6969/announce3 months agosuccess00
http://torrent.gresille.org/announce3 months agosuccess00
http://torrent-tracker.ru/announce.php3 months agosuccess00
udp://tracker.btzoo.eu:80/announce3 months agosuccess00
http://tracker.winglai.com/announce3 months agosuccess00
http://tracker.windsormetalbattery.com/announce3 months agosuccess00
http://tracker.thepiratebay.org/announce3 months agosuccess00
http://tracker.nwps.ws:6969/announce3 months agosuccess00
udp://10.rarbg.me:80/announce3 months agosuccess00
http://fr33dom.h33t.com:3310/announce3 months agosuccess00
udp://tracker.1337x.org:80/announce3 months agosuccess00
http://tracker.trackerfix.com/announce3 months agosuccess00
udp://9.rarbg.com:2710/announce3 months agosuccess00
udp://ipv4.tracker.harry.lu:80/announce3 months agosuccess00
udp://tracker.istole.it:80/announce3 months agosuccess00
udp://tracker.openbittorrent.com:80/announce3 months agosuccess00
udp://tracker.publicbt.com:80/announce3 months agosuccess00
udp://open.demonii.com:1337/announce3 months agosuccess00
udp://tracker.ccc.de:80/announce3 months agosuccess00
udp://tracker.token.ro:80/announce3 months agosuccess00
http://tracker.publicbt.com/announce3 months agosuccess00

Torrent File Content (1 file)

     the.big.bang.theory.s04e04.hdtv.xvid-fqm.avi -
175.14 MB



Episode 4: The Hot Troll Deviation


Complete name : K:\Download Completi\the.big.bang.theory.s04e04.hdtv.xvid-fqm.avi
Format : AVI
Format/Info : Audio Video Interleave
File size : 175 MiB
Duration : 19mn 3s
Overall bit rate : 1 284 Kbps
Writing application : transcode-1.0.4

ID : 0
Format : MPEG-4 Visual
Format profile : Advanced [email protected]
Format settings, BVOP : Yes
Format settings, QPel : No
Format settings, GMC : No warppoints
Format settings, Matrix : Default (H.263)
Codec ID : XVID
Codec ID/Hint : XviD
Duration : 19mn 3s
Bit rate : 1 109 Kbps
Width : 624 pixels
Height : 352 pixels
Display aspect ratio : 16:9
Frame rate : 23.976 fps
Color space : YUV
Chroma subsampling : 4:2:0
Bit depth : 8 bits
Scan type : Progressive
Bits/(Pixel*Frame) : 0.211
Stream size : 151 MiB (86%)
Writing library : XviD 1.2.1 (UTC 2008-12-04)

ID : 1
Format : MPEG Audio
Format version : Version 1
Format profile : Layer 3
Codec ID : 55
Codec ID/Hint : MP3
Duration : 19mn 3s
Bit rate mode : Variable
Bit rate : 128 Kbps
Channel(s) : 2 channels
Sampling rate : 48.0 KHz
Bit depth : 16 bits
Stream size : 22.2 MiB (13%)
Alignment : Aligned on interleaves
Interleave, duration : 24 ms (0.58 video frame)



Related torrents

Torrent NameAddedSizeSeedLeechHealth
Verified torrent
1 Year+ - in TV shows175.11 MB10
1 Good
Verified torrent
1 Year+ - in TV shows174.54 MB00
Verified torrent
1 Year+ - in TV shows175.17 MB12
1 Year+ - in TV shows175.15 MB00
1 Year+ - in TV shows175.15 MB30

Note :

Feel free to post any comments about this torrent, including links to Subtitle, samples, screenshots, or any other relevant information. Please Dont Download anything from Comments, And Dont Post Links to Streaming Sites like Fmovies, Xmovies8, 123Movies, GoMovies, CMovieshd, Solarmovie, Watchfree, Putlockers, GoStream, m4ufree etc.

Comments (0 Comments)

Please login or create a FREE account to post comments

Latest Searches

| castle in the sky chd | rebecka martinsson hardcoded sno | of wall street french | Carry cleo | Coldplay 192kHz | screen recorder mp4 | ryan song | bastille pompeii remixes ep | inthecrack z | Please 12 |