Quick Browse
Movies
TV shows
Music
Games
Applications
Anime
Other
Facebook
Advertising

Friends
Torrent Download
Movie4u
1337x.to
Torrent Downloads




Verified torrent The Big Bang Theory S04e04 - The Hot Troll Deviation [XviD - Eng Mp3] HDTVRip by FQM [TNT Vilage]


    Seeders : 157      Leechers : 4

Trackers List

Tracker NameLast CheckStatusSeedersLeechers




Torrent File Content (1 file)


     the.big.bang.theory.s04e04.hdtv.xvid-fqm.avi -
175.14 MB



Description



http://img839.imageshack.us/img839/672/episode.gif


Episode 4: The Hot Troll Deviation

http://img842.imageshack.us/img842/6425/reportpq.gif


General
Complete name : K:\Download Completi\the.big.bang.theory.s04e04.hdtv.xvid-fqm.avi
Format : AVI
Format/Info : Audio Video Interleave
File size : 175 MiB
Duration : 19mn 3s
Overall bit rate : 1 284 Kbps
Writing application : transcode-1.0.4

Video
ID : 0
Format : MPEG-4 Visual
Format profile : Advanced [email protected]
Format settings, BVOP : Yes
Format settings, QPel : No
Format settings, GMC : No warppoints
Format settings, Matrix : Default (H.263)
Codec ID : XVID
Codec ID/Hint : XviD
Duration : 19mn 3s
Bit rate : 1 109 Kbps
Width : 624 pixels
Height : 352 pixels
Display aspect ratio : 16:9
Frame rate : 23.976 fps
Color space : YUV
Chroma subsampling : 4:2:0
Bit depth : 8 bits
Scan type : Progressive
Bits/(Pixel*Frame) : 0.211
Stream size : 151 MiB (86%)
Writing library : XviD 1.2.1 (UTC 2008-12-04)

Audio
ID : 1
Format : MPEG Audio
Format version : Version 1
Format profile : Layer 3
Codec ID : 55
Codec ID/Hint : MP3
Duration : 19mn 3s
Bit rate mode : Variable
Bit rate : 128 Kbps
Channel(s) : 2 channels
Sampling rate : 48.0 KHz
Bit depth : 16 bits
Stream size : 22.2 MiB (13%)
Alignment : Aligned on interleaves
Interleave, duration : 24 ms (0.58 video frame)

http://img153.imageshack.us/img153/7241/screenshotx.gif


http://img233.imageshack.us/img233/9715/thumbs20101015080539.jpg

Related torrents

Torrent NameAddedSizeSeedLeechHealth
Verified torrent
1 Year+ - in TV shows175.11 MB18611
1 Good
Verified torrent
1 Year+ - in TV shows174.54 MB21811
Verified torrent
1 Year+ - in TV shows175.17 MB791
1 Year+ - in TV shows175.15 MB30
1 Year+ - in TV shows175.15 MB00

Comments (0 Comments)




Please login or create a FREE account to post comments

Latest Searches

| Sharknado 3 Oh Hell No 2015 HDTVRip L1 | InterracialBlowbang Katie Kox Katie Kox Gets BlowBanged 264 | A Season Florida State | full sail loggins messina | HandsOnHardcore Crystal Greenvelle | teendorado assault my holes 9 dvdrip sd | metal covers Vol | biggest image | sweet home sweet alabama | Im a thug 2 yg |