Quick Browse
Movies
TV shows
Music
Games
Applications
Anime
Other
Facebook
Advertising

Friends
Torrent Download
Movie4u
1337x.to
Torrent Downloads




Verified torrent The Big Bang Theory S04e05 - The Desperation Emanation [XviD - Eng Mp3] HDTVRip by FQM


    Seeders : 77      Leechers : 3

Trackers List

Tracker NameLast CheckStatusSeedersLeechers




Torrent File Content (1 file)


     The.Big.Bang.Theory.S04E05.HDTV.XviD-FQM.avi -
175.19 MB



Description



Episode 5: The Desperation Emanation

http://img842.imageshack.us/img842/6425/reportpq.gif


[CITA=Report]General
Complete name : K:\Download Completi\The.Big.Bang.Theory.S04E05.HDTV.XviD-FQM.avi
Format : AVI
Format/Info : Audio Video Interleave
File size : 175 MiB
Duration : 20mn 13s
Overall bit rate : 1 211 Kbps
Writing application : transcode-1.0.4

Video
ID : 0
Format : MPEG-4 Visual
Format profile : Advanced [email protected]
Format settings, BVOP : Yes
Format settings, QPel : No
Format settings, GMC : No warppoints
Format settings, Matrix : Default (H.263)
Codec ID : XVID
Codec ID/Hint : XviD
Duration : 20mn 13s
Bit rate : 1 036 Kbps
Width : 624 pixels
Height : 352 pixels
Display aspect ratio : 16:9
Frame rate : 23.976 fps
Color space : YUV
Chroma subsampling : 4:2:0
Bit depth : 8 bits
Scan type : Progressive
Bits/(Pixel*Frame) : 0.197
Stream size : 150 MiB (86%)
Writing library : XviD 1.2.1 (UTC 2008-12-04)

Audio
ID : 1
Format : MPEG Audio
Format version : Version 1
Format profile : Layer 3
Codec ID : 55
Codec ID/Hint : MP3
Duration : 20mn 13s
Bit rate mode : Variable
Bit rate : 128 Kbps
Channel(s) : 2 channels
Sampling rate : 48.0 KHz
Bit depth : 16 bits
Stream size : 23.5 MiB (13%)
Alignment : Aligned on interleaves
Interleave, duration : 24 ms (0.58 video frame)

http://img153.imageshack.us/img153/7241/screenshotx.gif


http://img822.imageshack.us/img822/1905/thumbs20101022075344.jpg

Related torrents

Torrent NameAddedSizeSeedLeechHealth
1 Good
Verified torrent
1 Year+ - in TV shows174.91 MB41261
Verified torrent
1 Year+ - in TV shows175.2 MB500
Verified torrent
1 Year+ - in TV shows175.11 MB434
1 Good
Verified torrent
1 Year+ - in TV shows175.19 MB673,607
1 Year+ - in TV shows175.2 MB44386

Comments (0 Comments)




Please login or create a FREE account to post comments

Latest Searches

| N M Howell | lit | the big bang theory season 1 8 x265 | this slut sucks cock | eduardo dec | europa universalis IV r g mechanics | American Veronica Avluv no holes barred fuck session | af data | dance dance dance buddy | Barbie ricerca cuccioli |