Quick Browse
TV shows

Latest Articles

Torrent Download
Free Movies
Torrent Downloads

Verified torrent The Big Bang Theory S04e05 - The Desperation Emanation [XviD - Eng Mp3] HDTVRip by FQM

    Seeders : 0      Leechers : 1

Warning! Do not Download Torrents Without a VPN!
Your IP Address is .   And Location is
Your Internet Provider and Government can track your torrent Activity!  Hide your IP ADDRESS with a VPN!
We Strongly Recommend Using CyberGhost VPN to Anonymize your Torrenting.

Note :

Please Update (Trackers Info) Before Downloading Torrents to See Updated Seeders And Leechers for Batter Download Speed.

Trackers List

Tracker NameLast CheckStatusSeedersLeechers
udp://tracker.zond.org:80/announce2 months agosuccess00
udp://fr33domtracker.h33t.com:3310/announce2 months agosuccess00
http://tracker.istole.it/announce2 months agosuccess00
http://bigfoot1942.sektori.org:6969/announce2 months agosuccess00
http://announce.torrentsmd.com:6969/announce2 months agosuccess00
http://tracker.tntvillage.scambioetico.org:2710/announce2 months agosuccess01
udp://tracker.tntvillage.scambioetico.org:2710/announce2 months agosuccess01
udp://tracker.coppersurfer.tk:802 months agosuccess01
udp://open.demonii.com:802 months agosuccess00
http://exodus.desync.com:6969/announce2 months agosuccess00
udp://tracker.ilibr.org:6969/announce2 months agosuccess00
http://tracker.best-torrents.net:6969/announce2 months agosuccess00
http://torrent.gresille.org/announce2 months agosuccess00
http://torrent-tracker.ru/announce.php2 months agosuccess00
udp://tracker.btzoo.eu:80/announce2 months agosuccess00
http://tracker.winglai.com/announce2 months agosuccess00
http://tracker.windsormetalbattery.com/announce2 months agosuccess00
http://tracker.thepiratebay.org/announce2 months agosuccess00
http://tracker.nwps.ws:6969/announce2 months agosuccess00
udp://10.rarbg.me:80/announce2 months agosuccess00
http://fr33dom.h33t.com:3310/announce2 months agosuccess00
http://tracker.trackerfix.com/announce2 months agosuccess00
udp://9.rarbg.com:2710/announce2 months agosuccess01
udp://ipv4.tracker.harry.lu:80/announce2 months agosuccess00
udp://tracker.istole.it:80/announce2 months agosuccess00
udp://tracker.openbittorrent.com:80/announce2 months agosuccess00
udp://tracker.publicbt.com:80/announce2 months agosuccess00
udp://open.demonii.com:1337/announce2 months agosuccess00
udp://tracker.ccc.de:80/announce2 months agosuccess00
udp://tracker.token.ro:80/announce2 months agosuccess00
http://tracker.publicbt.com/announce2 months agosuccess00

Torrent File Content (1 file)

     The.Big.Bang.Theory.S04E05.HDTV.XviD-FQM.avi -
175.19 MB


Episode 5: The Desperation Emanation


Complete name : K:\Download Completi\The.Big.Bang.Theory.S04E05.HDTV.XviD-FQM.avi
Format : AVI
Format/Info : Audio Video Interleave
File size : 175 MiB
Duration : 20mn 13s
Overall bit rate : 1 211 Kbps
Writing application : transcode-1.0.4

ID : 0
Format : MPEG-4 Visual
Format profile : Advanced [email protected]
Format settings, BVOP : Yes
Format settings, QPel : No
Format settings, GMC : No warppoints
Format settings, Matrix : Default (H.263)
Codec ID : XVID
Codec ID/Hint : XviD
Duration : 20mn 13s
Bit rate : 1 036 Kbps
Width : 624 pixels
Height : 352 pixels
Display aspect ratio : 16:9
Frame rate : 23.976 fps
Color space : YUV
Chroma subsampling : 4:2:0
Bit depth : 8 bits
Scan type : Progressive
Bits/(Pixel*Frame) : 0.197
Stream size : 150 MiB (86%)
Writing library : XviD 1.2.1 (UTC 2008-12-04)

ID : 1
Format : MPEG Audio
Format version : Version 1
Format profile : Layer 3
Codec ID : 55
Codec ID/Hint : MP3
Duration : 20mn 13s
Bit rate mode : Variable
Bit rate : 128 Kbps
Channel(s) : 2 channels
Sampling rate : 48.0 KHz
Bit depth : 16 bits
Stream size : 23.5 MiB (13%)
Alignment : Aligned on interleaves
Interleave, duration : 24 ms (0.58 video frame)



Related torrents

Torrent NameAddedSizeSeedLeechHealth
1 Good
Verified torrent
1 Year+ - in TV shows174.91 MB00
Verified torrent
1 Year+ - in TV shows175.2 MB10
Verified torrent
1 Year+ - in TV shows175.11 MB10
1 Good
Verified torrent
1 Year+ - in TV shows175.19 MB84
1 Year+ - in TV shows175.2 MB10

Note :

Feel free to post any comments about this torrent, including links to Subtitle, samples, screenshots, or any other relevant information. Please Dont Download anything from Comments, And Dont Post Links to Streaming Sites like Fmovies, Xmovies8, 123Movies, GoMovies, CMovieshd, Solarmovie, Watchfree, Putlockers, GoStream, m4ufree etc.

Comments (0 Comments)

Please login or create a FREE account to post comments

Latest Searches

| The Cutie with The Booty | Faking It 2014 S02E04 HDTV x264 KILLERS eztv | Jamiroquai High Times Singles 1992 2006 FLAC | martin garrix animals remix | NuruMassage Courtney Taylor Neighbor s Snobby Wife | Hearts Of Kings | last man on the earth s03e03 | thai Megapack | pet shop boys Introspective Further Listening | Sinful Desire Lauren Blakely |