Quick Browse
Movies
TV shows
Music
Games
Applications
Anime
Other
Facebook
Advertising

Friends
Torrent Download
Movie4u
1337x.to
Torrent Downloads




Verified torrent The Big Bang Theory S04e06 - The Irish Pub Formulation [XviD - Eng Mp3] HDTVRip by FQM [TNT Village]


    Seeders : 218      Leechers : 11

Trackers List

Tracker NameLast CheckStatusSeedersLeechers




Torrent File Content (1 file)


     the.big.bang.theory.s04e06.hdtv.xvid-fqm.avi -
174.54 MB



Description



http://img839.imageshack.us/img839/672/episode.gif


Episode 6: The Irish Pub Formulation

http://img842.imageshack.us/img842/6425/reportpq.gif


General
Complete name : K:\Download Completi\the.big.bang.theory.s04e06.hdtv.xvid-fqm.avi
Format : AVI
Format/Info : Audio Video Interleave
File size : 175 MiB
Duration : 21mn 2s
Overall bit rate : 1 160 Kbps
Writing application : transcode-1.0.4

Video
ID : 0
Format : MPEG-4 Visual
Format profile : Advanced [email protected]
Format settings, BVOP : Yes
Format settings, QPel : No
Format settings, GMC : No warppoints
Format settings, Matrix : Default (H.263)
Codec ID : XVID
Codec ID/Hint : XviD
Duration : 21mn 2s
Bit rate : 986 Kbps
Width : 624 pixels
Height : 352 pixels
Display aspect ratio : 16:9
Frame rate : 23.976 fps
Color space : YUV
Chroma subsampling : 4:2:0
Bit depth : 8 bits
Scan type : Progressive
Bits/(Pixel*Frame) : 0.187
Stream size : 148 MiB (85%)
Writing library : XviD 1.2.1 (UTC 2008-12-04)

Audio
ID : 1
Format : MPEG Audio
Format version : Version 1
Format profile : Layer 3
Codec ID : 55
Codec ID/Hint : MP3
Duration : 21mn 2s
Bit rate mode : Variable
Bit rate : 128 Kbps
Channel(s) : 2 channels
Sampling rate : 48.0 KHz
Bit depth : 16 bits
Stream size : 24.3 MiB (14%)
Alignment : Aligned on interleaves
Interleave, duration : 24 ms (0.58 video frame)


http://img153.imageshack.us/img153/7241/screenshotx.gif


http://img18.imageshack.us/img18/5545/thumbs20101029083622.jpg


Related torrents

Torrent NameAddedSizeSeedLeechHealth
Verified torrent
1 Year+ - in TV shows175.11 MB18611
Verified torrent
1 Year+ - in TV shows175.17 MB791
Verified torrent
1 Year+ - in TV shows175.14 MB1574
Verified torrent
1 Year+ - in TV shows174.54 MB4,872410
1 Year+ - in TV shows174.55 MB510

Comments (0 Comments)




Please login or create a FREE account to post comments

Latest Searches

| X Art 16 09 27 Lena Anderson Luscious Lena XXX 1080p MP4 KTRN1C | Very Best Of R J Stone | Incorporated Incorporated s01e02 | 29 ans | rock dvd9 | best thing i never beyonce | Gives Agent a Wettie | Paradies Liebe | Armin van buuren in out love | charlie brookers weekly wipe series 3 |