Quick Browse
Movies
TV shows
Music
Games
Applications
Anime
Other
Facebook
Advertising

Friends
Torrent Download
Movie4u
1337x.to
Torrent Downloads




Verified torrent The Big Bang Theory S04e07- The Apology Insufficiency [XviD - Eng Mp3] HDTVRip by FQM [TNT Village]


    Seeders : 50      Leechers : 0

Trackers List

Tracker NameLast CheckStatusSeedersLeechers




Torrent File Content (1 file)


     The.Big.Bang.Theory.S04E07.The.Apology.Insufficiency.HDTV.XviD-FQM.avi -
175.2 MB



Description



http://img839.imageshack.us/img839/672/episode.gif


Episode 07 - The Apology Insufficiency

http://img842.imageshack.us/img842/6425/reportpq.gif


General
Complete name : K:\Download Completi\The.Big.Bang.Theory.S04E07.The.Apology.Insufficiency.HDTV.XviD-FQM.avi
Format : AVI
Format/Info : Audio Video Interleave
File size : 175 MiB
Duration : 21mn 12s
Overall bit rate : 1 155 Kbps
Writing application : transcode-1.0.4

Video
ID : 0
Format : MPEG-4 Visual
Format profile : Advanced [email protected]
Format settings, BVOP : Yes
Format settings, QPel : No
Format settings, GMC : No warppoints
Format settings, Matrix : Default (H.263)
Codec ID : XVID
Codec ID/Hint : XviD
Duration : 21mn 12s
Bit rate : 982 Kbps
Width : 624 pixels
Height : 352 pixels
Display aspect ratio : 16:9
Frame rate : 23.976 fps
Color space : YUV
Chroma subsampling : 4:2:0
Bit depth : 8 bits
Scan type : Progressive
Bits/(Pixel*Frame) : 0.186
Stream size : 149 MiB (85%)
Writing library : XviD 1.2.1 (UTC 2008-12-04)

Audio
ID : 1
Format : MPEG Audio
Format version : Version 1
Format profile : Layer 3
Codec ID : 55
Codec ID/Hint : MP3
Duration : 21mn 12s
Bit rate mode : Variable
Bit rate : 128 Kbps
Channel(s) : 2 channels
Sampling rate : 48.0 KHz
Bit depth : 16 bits
Stream size : 24.3 MiB (14%)
Alignment : Aligned on interleaves
Interleave, duration : 24 ms (0.58 video frame)
[/CITA]

http://img153.imageshack.us/img153/7241/screenshotx.gif


http://uptiki.com/images/wasfphkq8mgdw9q866ti.jpg


Related torrents

Torrent NameAddedSizeSeedLeechHealth
1 Good
Verified torrent
1 Year+ - in TV shows174.91 MB41261
Verified torrent
1 Year+ - in TV shows175.11 MB434
1 Good
Verified torrent
1 Year+ - in TV shows175.19 MB773
2 Good
Verified torrent
1 Year+ - in TV shows175.2 MB3,56111,719
Verified torrent
1 Year+ - in TV shows247.33 MB1219

Comments (0 Comments)




Please login or create a FREE account to post comments

Latest Searches

| sebastian ingrosso alesso lose | marc dorcel Ingenuous The | movies songs 2015 | Write 7 | naked single | mynaughtyalbum claudia macc | Write 7 | somos putas y que | this w | harry potter 3 gevangene van Azkaban luisterboek |