Quick Browse
Movies
TV shows
Music
Games
Applications
Anime
Other
Facebook
Advertising

Friends
Torrent Download
Movie4u
1337x.to
Torrent Downloads




Verified torrent The Big Bang Theory S04e08 - The 21-Second Excitation [XviD - Eng Mp3] HDTVRip by FQM [TNT Village]


    Seeders : 79      Leechers : 1

Trackers List

Tracker NameLast CheckStatusSeedersLeechers




Torrent File Content (1 file)


     The.Big.Bang.Theory.S04E08.HDTV.XviD-FQM.avi -
175.17 MB



Description



http://img839.imageshack.us/img839/672/episode.gif


Episode 08 - The 21-Second Excitation

http://img842.imageshack.us/img842/6425/reportpq.gif


[CITA=Report]Format : AVI
Format/Info : Audio Video Interleave
File size : 175 MiB
Duration : 18mn 51s
Overall bit rate : 1 299 Kbps
Writing application : transcode-1.0.4

Video
ID : 0
Format : MPEG-4 Visual
Format profile : Advanced [email protected]
Format settings, BVOP : Yes
Format settings, QPel : No
Format settings, GMC : No warppoints
Format settings, Matrix : Default (H.263)
Codec ID : XVID
Codec ID/Hint : XviD
Duration : 18mn 51s
Bit rate : 1 126 Kbps
Width : 624 pixels
Height : 352 pixels
Display aspect ratio : 16:9
Frame rate : 23.976 fps
Color space : YUV
Chroma subsampling : 4:2:0
Bit depth : 8 bits
Scan type : Progressive
Bits/(Pixel*Frame) : 0.214
Stream size : 152 MiB (87%)
Writing library : XviD 1.2.1 (UTC 2008-12-04)

Audio
ID : 1
Format : MPEG Audio
Format version : Version 1
Format profile : Layer 3
Codec ID : 55
Codec ID/Hint : MP3
Duration : 18mn 51s
Bit rate mode : Variable
Bit rate : 128 Kbps
Channel(s) : 2 channels
Sampling rate : 48.0 KHz
Bit depth : 16 bits
Stream size : 21.6 MiB (12%)
Alignment : Aligned on interleaves
Interleave, duration : 24 ms (0.58 video frame)

[align=center]
http://img153.imageshack.us/img153/7241/screenshotx.gif


http://img12.imageshack.us/img12/6402/thumbs20101112085026.jpg


Related torrents

Torrent NameAddedSizeSeedLeechHealth
Verified torrent
1 Year+ - in TV shows175.11 MB18611
1 Good
Verified torrent
1 Year+ - in TV shows174.54 MB21811
Verified torrent
1 Year+ - in TV shows175.14 MB1574
1 Year+ - in TV shows175.2 MB4194
1 Good
Verified torrent
1 Year+ - in TV shows175.17 MB1,33192

Comments (0 Comments)




Please login or create a FREE account to post comments

Latest Searches

| Young ma M A | s o d whats that noise | F12013 | abbyy install | paranormal activity 2015 unrated | Lucy Doll Experience Lucy Doll | Dr Web LiveUSB v9 0 0 ENG | yo sin ti el perdon | Microsoft Office 2013 VL ProPlus English x86 x64 | o d b money |