Quick Browse
Movies
TV shows
Music
Games
Applications
Anime
Other
Facebook
Advertising

Friends
Torrent Download
Movie4u
1337x.to
Torrent Downloads




Verified torrent The Big Bang Theory S04e09 - The Boyfriend Complexity [XviD - Eng Mp3] HDTVRip by FQM [TNT Village]


    Seeders : 43      Leechers : 4

Trackers List

Tracker NameLast CheckStatusSeedersLeechers




Torrent File Content (1 file)


     the.big.bang.theory.s04e09.hdtv.xvid-fqm.avi -
175.11 MB



Description



http://img839.imageshack.us/img839/672/episode.gif


Episode 09 - The Boyfriend Complexity

http://img842.imageshack.us/img842/6425/reportpq.gif


Format : AVI
Format/Info : Audio Video Interleave
File size : 175 MiB
Duration : 20mn 33s
Overall bit rate : 1 191 Kbps
Writing application : transcode-1.0.4

Video
ID : 0
Format : MPEG-4 Visual
Format profile : Advanced [email protected]
Format settings, BVOP : Yes
Format settings, QPel : No
Format settings, GMC : No warppoints
Format settings, Matrix : Default (H.263)
Codec ID : XVID
Codec ID/Hint : XviD
Duration : 20mn 33s
Bit rate : 1 013 Kbps
Width : 624 pixels
Height : 352 pixels
Display aspect ratio : 16:9
Frame rate : 23.976 fps
Color space : YUV
Chroma subsampling : 4:2:0
Bit depth : 8 bits
Scan type : Progressive
Bits/(Pixel*Frame) : 0.192
Stream size : 149 MiB (85%)
Writing library : XviD 1.2.1 (UTC 2008-12-04)

Audio
ID : 1
Format : MPEG Audio
Format version : Version 1
Format profile : Layer 3
Codec ID : 55
Codec ID/Hint : MP3
Duration : 20mn 33s
Bit rate mode : Variable
Bit rate : 128 Kbps
Channel(s) : 2 channels
Sampling rate : 48.0 KHz
Bit depth : 16 bits
Stream size : 24.2 MiB (14%)
Alignment : Aligned on interleaves
Interleave, duration : 24 ms (0.58 video frame)

http://img153.imageshack.us/img153/7241/screenshotx.gif


http://img694.imageshack.us/img694/1365/thumbs20101119160756.jpg

Related torrents

Torrent NameAddedSizeSeedLeechHealth
1 Good
Verified torrent
1 Year+ - in TV shows174.91 MB41261
Verified torrent
1 Year+ - in TV shows175.2 MB500
1 Good
Verified torrent
1 Year+ - in TV shows175.19 MB773
1 Year+ - in TV shows175.17 MB160
Verified torrent
1 Year+ - in TV shows175.11 MB7,659378

Comments (0 Comments)




Please login or create a FREE account to post comments

Latest Searches

| DOWNTOWN FEAT MELLE MEL KOOL MOE DEE GRANDMASTER CAZ ERIC NALLY | samantha pick | 2 Chainz Crib in my | young squirting | archangelvideo remy lacroix in hard ir screw 2016 gonzo ir | riley ecstasy | Etrg Collide | do i smile | latest love song 2016 | 2016 Etrg Collide |