Quick Browse
Movies
TV shows
Music
Games
Applications
Anime
Other
Facebook
Friends
Torrent Download
Movie4u
1337x.to
Torrent Downloads

Verified torrent The Blues Brothers [DVD] [ENG] [AC3] [Hannspree]


    Seeders : 1      Leechers : 6
Hash :390EB5A17029CC2BBF3AA0E905C8034516ED4306
Added :1 Year+ by HannspreeVerified torrent uploader in Movies
Size :2.74 GB
Stream :WATCH ONLINE @ Movie4u


The Blues Brothers [DVD] [ENG] [AC3] [Hannspree]
Anonymous and Direct Download 300GB+ free








Trackers List

Tracker NameLast CheckStatusSeedersLeechers




Torrent File Content (20 files)


The Blues Brothers
    The Blues Brothers [DVD]
          VIDEO_TS/VIDEO_TS.BUP -
12 KB

          VIDEO_TS/VIDEO_TS.IFO -
12 KB

          VIDEO_TS/VIDEO_TS.VOB -
58 KB

          VIDEO_TS/VTS_01_0.BUP -
88 KB

          VIDEO_TS/VTS_01_0.IFO -
88 KB

          VIDEO_TS/VTS_01_0.VOB -
58 KB

          VIDEO_TS/VTS_01_1.VOB -
1023.97 MB

          VIDEO_TS/VTS_01_2.VOB -
1023.97 MB

          VIDEO_TS/VTS_01_3.VOB -
759.32 MB

    The Blues Brothers [Images]
          The Blues Brothers [Cover].jpg -
353.21 KB

          The Blues Brothers [Disc].jpg -
26.09 KB

          The Blues Brothers [Screens].jpg -
132.82 KB

     The Blues Brothers.NFO -
3.51 KB

     Torrent downloaded from Ahashare.com.txt -
47 bytes

     Torrent downloaded from Demonoid.com.txt -
47 bytes

     Torrent downloaded from Genesis-sp.org.txt -
49 bytes

     Torrent downloaded from H33t.org.txt -
43 bytes

     Torrent downloaded from Limetorrents.com.txt -
51 bytes

     Torrent downloaded from TorrentBucket.org.txt -
52 bytes

     Torrent downloaded from Torrentsnet.com.txt -
48 bytes



Description



=====================================================================================
[ Another free, high quality, ready to burn DVD I will be adding new torrents on a daily basis - Remember to seed ]
=====================================================================================
MOVIE TITLE: The Blues Brothers
LANGUAGE: English
MOVIE SUBS: No
BURN TESTED: Yes
FORMAT: Pal
GENRE: Action | Comedy | Music
RUNTIME: 136 Minutes
YEAR: 1980
IMDB LINK:
=====================================================================================
MOVIE DESC:

After the release of Jake Blues from prison, he and brother Elwood go to visit the old home where they were raised by nuns. They learn the church stopped its support and will sell the place to the education authority, and the only way to keep the place open is if the $5000 tax on the property is paid within 11 days. The brothers want to help and decide to put their blues band back together and raise the the money by staging a big gig. As they set off on their "mission from god" they seem to make more enemies along the way. Will they manage to come up with the money in time
=====================================================================================
MOVIE SPECS:

GENERAL:
Complete name : The Blues Brothers
Format : MPEG-PS
File size : 2.74 GB
Duration : 136 Minutes
Overall bit rate : 2 583 Kbps

VIDEO:
ID : 224 (0xE0)
Format : MPEG Video
Format version : Version 2
Format profile : [email protected]
Format settings, BVOP : Yes
Format settings, Matrix : Default
Duration : 136 Minutes
Bit rate mode : Variable
Bit rate : 2 339 Kbps
Nominal bit rate : 9 608 Kbps
Width : 720 pixels
Height : 576 pixels
Display aspect ratio : 16:9
Frame rate : 25.000 fps
Standard : PAL
Color space : YUV
Chroma subsampling : 4:2:0
Bit depth : 8 bits
Scan type : Progressive
Bits/(Pixel*Frame) : 0.226
Stream size : 927 MiB (91%)

AUDIO:
ID : 128 (0x80)
Format : AC-3
Format/Info : Audio Coding 3
Mode extension : CM (complete main)
Duration : 136 Minutes
Bit rate mode : Constant
Bit rate : 192 Kbps
Channel(s) : 2 channels
Channel positions : Front: L R
Sampling rate : 48.0 KHz
Stream size : 76.1 MiB (7%)
=====================================================================================
TRACKERS:
http://inferno.demonoid.com:3401/announce
http://www.genesis-sp.org:2710/announce
http://tracker.torrentbox.com:2710/announce
http://denis.stalker.h3q.com:6969/announce
http://nemesis.1337x.org/announce
http://exodus.1337x.org/announce
http://tracker.publicbt.com/announce
http://10.rarbg.com/announce
http://tracker.ilibr.org:6969/announce
http://rt.beeretracker.net/announce.php
http://torrentbucket.org/announce
=====================================================================================
[FOOT NOTE]
If you are happy with this download, it would be nice to hear your views or comments that you might have. Enjoy
[NEW TORRENT SITE OPENED]
Check out http://torrentbucket.org/ The staff and members are extremely friendly and a relaxed enviroment, plus
there tracker reports live stats' (up-to-the-minute) on your uploaded torrents, your ratio could go through the
roof in no time, well worth joining, check them out!!
=====================================================================================
Screens Shots of The Blues Brothers:

http://leetpic.com/images/theblupop.jpg


Related torrents

Torrent NameAddedSizeSeedLeechHealth
Verified torrent
1 Year+ - in Movies1.34 GB56
Verified torrent
1 Year+ - in Movies1.55 GB229
1 Good
Verified torrent
1 Year+ - in Movies1.63 GB239
Verified torrent
1 Year+ - in Movies1.22 GB01
Verified torrent
1 Year+ - in Movies1.53 GB62

Comments (0 Comments)




Please login or create a FREE account to post comments

Latest Searches

| anal bust | Shemalesfromhell yngrid salles dmontilla and tchesco 720p mp4 oro bty | my wife is cheating of me | Seduced By Mommy 9 HD 720P | bonkers | cmt music songs | Alix Lovell 17 | pretty little liars 3 x 22 | commandos man | god ringtones |