Quick Browse
Movies
TV shows
Music
Games
Applications
Anime
Other
Facebook
Advertising

Friends
Torrent Download
Movie4u
1337x.to
Torrent Downloads




The Book of Eli TS XVID V2 - IMAGiNE


    Seeders : 0      Leechers : 0
Hash :08A3144C74B3D046DD8EA0BCEA47AB681D53C5CB
Added :1 Year+ in Movies
Size :1.41 GB
Stream :WATCH ONLINE @ Movie4u


The Book of Eli TS XVID V2 - IMAGiNE
Free and Fast Download with Usenet 300GB+ free







Trackers List

Tracker NameLast CheckStatusSeedersLeechers




Torrent File Content (2 files)


The Book Of Eli TS V2 www.IWANNADOWNLOAD.com
     The Book Of Eli TS V2 www.IWANNADOWNLOAD.com.avi -
1.38 GB

     TS XVID V2 SAMPLE.avi -
29.33 MB



Description



http://i47.tinypic.com/20fukae.jpg


Filename:
The Book of Eli TS XVID V2 - IMAGiNE

http://www.imdb.com/title/tt1037705/

http://i47.tinypic.com/b9ghat.png

http://i46.tinypic.com/33n9uf5.png

http://i45.tinypic.com/68sd3s.png

http://i46.tinypic.com/6hkpps.png

http://i47.tinypic.com/nlcr6b.png


Ripper ...........: IMAGiNE IMDB Rating.......:7.6/10
Video Codec.......: XVID Release Date......:22/01/10
Audio Codec.......:MP3 Theatre Date......:15/01/10
Audio Bitrate.....:128 Runtime.......:1h 48mn
Subtitles.........:NIL Language..........:ENGLISH
Resolution...... 704 x 288 IMDb URL..........:http://www.imdb.com/title/tt1037705/


DETAILS:

Video
ID : 0
Format : MPEG-4 Visual
Format profile : Advanced [email protected]
Format settings, BVOP : Yes
Format settings, QPel : No
Format settings, GMC : No warppoints
Format settings, Matrix : Default (MPEG)
Muxing mode : Packed bitstream
Codec ID : XVID
Codec ID/Hint : XviD
Duration : 1h 48mn
Bit rate : 1 680 Kbps
Width : 704 pixels
Height : 288 pixels
Display aspect ratio : 2.444
Frame rate : 25.000 fps
Resolution : 24 bits
Colorimetry : 4:2:0
Scan type : Progressive
Bits/(Pixel*Frame) : 0.331
Stream size : 1.28 GiB (92%)
Writing library : XviD 1.2.1 (UTC 2008-12-04)

Audio
ID : 1
Format : MPEG Audio
Format version : Version 1
Format profile : Layer 3
Codec ID : 55
Codec ID/Hint : MP3
Duration : 1h 48mn
Bit rate mode : Constant
Bit rate : 128 Kbps
Channel(s) : 2 channels
Sampling rate : 48.0 KHz
Resolution : 16 bits
Stream size : 99.6 MiB (7%)
Alignment : Split accross interleaves
Interleave, duration : 40 ms (1.00 video frame)
Interleave, preload duration : 500 ms

Related torrents

Torrent NameAddedSizeSeedLeechHealth
1 Year+ - in Movies1.41 GB00
1 Year+ - in Movies1.38 GB00
1 Year+ - in Movies705.4 MB00
1 Year+ - in Movies705.4 MB00
1 Year+ - in Movies726.29 MB00

Comments (0 Comments)




Please login or create a FREE account to post comments

Latest Searches

| Nami Gets | boa vs python 720p | mia malkova 09 12 | the avc | man from snowy river return | Magnificant Seven Dvd | t just a little bit | planet earth 2 part 2 | clean remix | Tidecallernami Nami Gets |