Quick Browse
Movies
TV shows
Music
Games
Applications
Anime
Other
Facebook
Friends
Torrent Download
Free Movies
1337x.to
Torrent Downloads

Verified torrent The Boss of the Underworld (2008) Hindi DvdRip [email protected]


    Seeders : 0      Leechers : 0

Warning! Do not Download Torrents Without a VPN!
Your IP Address is .   Location is
Your Internet Provider and Government can track your torrent Activity!  Hide your IP ADDRESS with a VPN!
We Strongly Recommend Using SpyOFF VPN to Anonymize your Torrenting. It's FREE!

Note :

Please Update (Trackers Info) Before Downloading Torrents to See Updated Seeders And Leechers for Batter Download Speed.

Trackers List

Tracker NameLast CheckStatusSeedersLeechers




Torrent File Content (13 files)


The Boss of the Underworld (2008) DvdRip Xvid(www.mastitorrents.com)
     The Boss of the Underworld (2008) DvdRip Xvid(www.mastitorrents.com).avi -
743 MB

    Screens
          snapshot20110614123714.jpg -
24.12 KB

          snapshot20110614124252.jpg -
26.51 KB

          snapshot20110614124117.jpg -
21.77 KB

          snapshot20110614123248.jpg -
29.73 KB

          snapshot20110614124230.jpg -
30.97 KB

          snapshot20110614123134.jpg -
33.27 KB

          snapshot20110614124152.jpg -
22.95 KB

          snapshot20110614123646.jpg -
26.75 KB

          snapshot20110614124312.jpg -
28.21 KB

     www.mastitorrents.com.txt -
538 bytes

     The Boss of the Underworld (2008) DvdRip Xvid(www.mastitorrents.com) [Sample].avi -
7.7 MB

     -=MTR=- [Masti Torrents Releasers].txt -
169 bytes



Description



[color=red][font=Georgia]mastitorrents.com

http://mastitorrents.com/forums/index.php

General
Complete name : The Boss of the Underworld (2008)-Xvid-DvdRip.avi
Format : AVI
Format/Info : Audio Video Interleave
File size : 743 MiB
Duration : 2h 26mn
Overall bit rate : 710 Kbps

Video
ID : 0
Format : MPEG-4 Visual
Format profile : Advanced [email protected]
Format settings, BVOP : Yes
Format settings, QPel : No
Format settings, GMC : No warppoints
Format settings, Matrix : Default (H.263)
Codec ID : XVID
Codec ID/Hint : XviD
Duration : 2h 26mn
Bit rate : 570 Kbps
Width : 560 pixels
Height : 304 pixels
Display aspect ratio : 16:9
Frame rate : 25.000 fps
Color space : YUV
Chroma subsampling : 4:2:0
Bit depth : 8 bits
Scan type : Progressive
Compression mode : Lossy
Bits/(Pixel*Frame) : 0.134
Stream size : 596 MiB (80%)
Writing library : XviD 1.2.1 (UTC 2008-12-04)

Audio
ID : 1
Format : MPEG Audio
Format version : Version 1
Format profile : Layer 3
Codec ID : 55
Codec ID/Hint : MP3
Duration : 2h 26mn
Bit rate mode : Constant
Bit rate : 128 Kbps
Channel(s) : 2 channels
Sampling rate : 44.1 KHz
Compression mode : Lossy
Stream size : 134 MiB (18%)
Alignment : Split accross interleaves
Interleave, duration : 26 ms (0.65 video frame)
Writing library : LAME
[/font][/color]

http://bollywoodreleases.info/images/42317693585069794526.jpg

http://bollywoodreleases.info/images/47559006166123972222.jpg

http://bollywoodreleases.info/images/80404911885052937205.jpg

http://bollywoodreleases.info/images/11431189887107863248.jpg

http://bollywoodreleases.info/images/04807970694631721642.jpg

http://bollywoodreleases.info/images/44777590861604720377.jpg

http://bollywoodreleases.info/images/12740251871427949321.jpg

http://bollywoodreleases.info/images/51502979864407031122.jpg


Related torrents

Torrent NameAddedSizeSeedLeechHealth
1 Year+ - in Movies810.16 MB128
1 Year+ - in TV shows1.46 GB3113
1 Year+ - in Movies558.5 MB11
1 Year+ - in Movies615.44 MB11
2 months ago - in Other1.12 GB00

Comments (0 Comments)




Please login or create a FREE account to post comments

Latest Searches

| Ginormous Food S02E02 | endocrinology and diabetes clinical cases uncovered pdf stormrg | FASTFURIOUS 8 ITALIANO | asap ferg meek | Originals 77 | LegalPorno Jessica Spielberg | rimming pussy | Half GrilFriend 2017 PDvd Rip x264 1 3 Team IcTv Exclusive | jesus complete story | Marley Brinx Filmed By My Boyfriend Scene |