Quick Browse
Movies
TV shows
Music
Games
Applications
Anime
Other
Facebook
Friends
Torrent Download
Movie4u
1337x.to
Torrent Downloads

Verified torrent The Butcher [2009] [DVD] [AC3] [Hannspree]


    Seeders : 1      Leechers : 0
Hash :BF973DBF4E45059FE247C5F205689363D1DF33D5
Added :1 Year+ by HannspreeVerified torrent uploader in Movies
Size :1.9 GB
Stream :WATCH ONLINE @ Movie4u


The Butcher [2009] [DVD] [AC3] [Hannspree]
Free and Direct Download 300GB+ free







Trackers List

Tracker NameLast CheckStatusSeedersLeechers




Torrent File Content (11 files)


The Butcher
    The Butcher [DVD]
          VIDEO_TS/VIDEO_TS.BUP -
12 KB

          VIDEO_TS/VIDEO_TS.IFO -
12 KB

          VIDEO_TS/VIDEO_TS.VOB -
58 KB

          VIDEO_TS/VTS_01_0.BUP -
74 KB

          VIDEO_TS/VTS_01_0.IFO -
74 KB

          VIDEO_TS/VTS_01_0.VOB -
58 KB

          VIDEO_TS/VTS_01_1.VOB -
1023.97 MB

          VIDEO_TS/VTS_01_2.VOB -
919.58 MB

          The Butcher [DVD] Covers/The Butcher - Cover.jpg -
432.31 KB

          The Butcher [DVD] Covers/The Butcher - Disc.jpg -
330.6 KB

     The Butcher [DVD].NFO -
7.38 KB



Description



=========================================================================================================================
[ Another free and high quality, ready to burn DVD - I will be adding new torrents on a daily basis - Remember to seed ]
=========================================================================================================================
MOVIE TITLE: The Butcher
LANGUAGE: English
MOVIE SUBS: No - (subtitles if/when required)
BURN TESTED: Yes
FORMAT: Pal
GENRE: Action | Thriller
RUNTIME: 110 Minutes
YEAR: 2009
IMDB LINK: http://www.imdb.com/title/tt0997038/
=========================================================================================================================
GENERAL MOVIE DESC:

For nearly twenty years after his boxing career ended Merle Hench works for Murdoch, the capo of a San Fernando mob outfit. Merle spends his days cracking heads and collecting debts, it is not a job he enjoys. Cool, calm and collected, soft spoken even, Merle's an anachronism, a man out of place and out of time. His Boss thinks Merle has outlived his usefulness and is expendable. So they set him up to take the fall for a multi-million $ heist of a rival mob boss. A habitual gambler on a 20 year losing streak, Merle's luck turns as he survives the trap and winds up with a piece of the take and the girl.

Merle might have been content to just disappear and spend his windfall with Jacqueline. But the betrayal of his loyalty for 20 years snapped something inside. Merle Hench, otherwise known as the Butcher is slow to anger yet quick to act, he's learned to live and let live to keep on going, but not this time. Everyone thought his nickname was a joke, what they didn't know was that Merle had a dark side, a secret past that earned that awful name. Merle finds himself in the cross-fire of a gang war, with all the guns aimed at him. It's an all-out race to win his freedom, win the girl and win redemption. They tried to bury him twice, but twice he got away. Underestimating Merle Hench is their biggest mistake and their final career move.
=========================================================================================================================
GENERAL MOVIE SPECS:

GENERAL:
Complete name : The Butcher
Format : MPEG-PS
File size : 1.89 GB
Duration : 110 Minutes
Overall bit rate : 2 400 Kbps

VEDIO:
ID : 224 (0xE0)
Format : MPEG Video
Format version : Version 2
Format profile : [email protected]
Format settings, BVOP : Yes
Format settings, Matrix : Default
Duration : 110 Minutes
Bit rate mode : Variable
Bit rate : 2 161 Kbps
Nominal bit rate : 9 608 Kbps
Width : 720 pixels
Height : 576 pixels
Display aspect ratio : 16:9
Frame rate : 25.000 fps
Standard : PAL
Color space : YUV
Chroma subsampling : 4:2:0
Bit depth : 8 bits
Scan type : Progressive
Bits/(Pixel*Frame) : 0.208
Stream size : 922 MiB (90%)

AUDIO:
ID : 128 (0x80)
Format : AC-3
Format/Info : Audio Coding 3
Mode extension : CM (complete main)
Duration : 110 Minutes
Bit rate mode : Constant
Bit rate : 192 Kbps
Channel(s) : 2 channels
Channel positions : Front: L R
Sampling rate : 48.0 KHz
Stream size : 81.9 MiB (8%)
=========================================================================================================================

Related torrents

Torrent NameAddedSizeSeedLeechHealth
Verified torrent
1 Year+ - in Movies1.36 GB113
Verified torrent
1 Year+ - in Movies1.89 GB111
Verified torrent
1 Year+ - in Movies1.39 GB116
Verified torrent
1 Year+ - in Movies1.67 GB00
Verified torrent
1 Year+ - in Movies1.09 GB20

Comments (0 Comments)




Please login or create a FREE account to post comments

Latest Searches

| VixenX Kate England Looking For a Agent | howl ShAaNiG | how to get away with murder 3 12 | cam burning h house | Pov mov milf anal | flash 1080p s03e10 | Lola Kortney Every Drop He Can Muster | Lauren Phillips Dolly Leigh Good Things Cum in Small and Big Packages | james you re beautiful mp3 | Woodman Casting XCarla Crouz Hard My first time DP 3 men |