Quick Browse
Movies
TV shows
Music
Games
Applications
Anime
Other
Facebook
Advertising

Friends
Torrent Download
Movie4u
1337x.to
Torrent Downloads




Verified torrent The Collector


    Seeders : 1      Leechers : 7
Hash :4DA2F8529337EE28E0FDC42B527D5519B1DD1454
Added :1 Year+ by HannspreeVerified torrent uploader in Movies
Size :1.05 GB
Stream :WATCH ONLINE @ Movie4u


The Collector
Free and Fast Download with Usenet 300GB+ free







Trackers List

Tracker NameLast CheckStatusSeedersLeechers




Torrent File Content (8 files)


The Collector
    VIDEO_TS
          VIDEO_TS.BUP -
12 KB

          VIDEO_TS.IFO -
12 KB

          VIDEO_TS.VOB -
58 KB

          VTS_01_0.BUP -
64 KB

          VTS_01_0.IFO -
64 KB

          VTS_01_0.VOB -
58 KB

          VTS_01_1.VOB -
1023.97 MB

          VTS_01_2.VOB -
55.04 MB



Description



===============================================================================================
[ This torrent was uploaded by Hannspree on the 19th, June 2010 - I will be adding new torrents on a daily basis - Remember to seed ]
===============================================================================================
MOVIE TITLE: The Collector
LANGUAGE: English
MOVIE SUBS: No - (subtitles if/when required)
===============================================================================================
MOVIE DESC:

When the Chase family moves to an isolated house in the middle of nowhere in Detroit, Arkin is hired to fix the windows
and the doors. Later he meets his daughter and his wife that has a debt with dangerous sharks and needs money,
but his week payment is not enough to pay her debts. Arkin plots to heist the safe of Michael Chase during the night
to raise the necessary money. However, when he arrives in the house, he finds that a sadistic criminal has imprisoned
the family and planted traps everywhere. Arkin seeks a way out of the deadly house to save his life.
===============================================================================================
MOVIE SPECS:

GENERAL:
Complete name : The Collector
Format : MPEG-PS
File size : 1.05 GB
Duration : 1h 25mn
Overall bit rate : 1 682 Kbps

VIDEO:
ID : 224 (0xE0)
Format : MPEG Video
Format version : Version 2
Format profile : [email protected]
Format settings, BVOP : Yes
Format settings, Matrix : Default
Duration : 1h 25mn
Bit rate mode : Variable
Bit rate : 1 456 Kbps
Nominal bit rate : 9 608 Kbps
Width : 720 pixels
Height : 576 pixels
Display aspect ratio : 16:9
Frame rate : 25.000 fps
Standard : PAL
Color space : YUV
Chroma subsampling : 4:2:0
Bit depth : 8 bits
Scan type : Progressive
Stream size : 887 MiB (87%)

AUDIO:
ID : 128 (0x80)
Format : AC-3
Format/Info : Audio Coding 3
Mode extension : CM (complete main)
Duration : 1h 25mn
Bit rate mode : Constant
Bit rate : 192 Kbps
Channel(s) : 2 channels
Channel positions : Front: L R
Sampling rate : 48.0 KHz
Stream size : 117 MiB (11%)
===============================================================================================
STREAM:
Video: MPEG2 Video 720x576 (16:9) [Video]
Audio: Dolby AC3 48000Hz stereo [AC3]
===============================================================================================
TOTAL FILE SIZE:
1.05 GB (1,131,700,224 bytes)
===============================================================================================
TORRENT CONTENTS:
8 Files in 2 Folders (VIDEO_TS & AUDIO_TS)
===============================================================================================
IMDB LINK:
http://www.imdb.com/title/tt0844479/
===============================================================================================
[ Another Free, high quality and ready too burn DVD movie from Hannspree. More will follow very soon. Please do be patient until then ]
===============================================================================================

Related torrents

Torrent NameAddedSizeSeedLeechHealth
2 months ago - in Movies5.66 GB00
3 months ago - in Music245.07 MB00
6 months ago - in Other213.05 MB00
1 Year+ - in Movies19.69 GB00
1 Year+ - in TV shows57.68 MB01
9 months ago - in Other2.39 MB00

Comments (0 Comments)




Please login or create a FREE account to post comments

Latest Searches

| with an attitude 2 | sexart wrapped | nora roberts glass | HardX 16 04 15 AJ Applegate Mandingo 1080p MP4 KTR | 120916 005 | HayaiSubs Dragon Ball Super 037 | pan 1080p ac3 | lana del rey dream once upon a dream | Le avventure di Taddeo lesploratore ita 1080p | Spartacus Season 3 Complete 480p HDTV |