Quick Browse
Movies
TV shows
Music
Games
Applications
Anime
Other
Facebook
Advertising

Friends
Torrent Download
Movie4u
1337x.to
Torrent Downloads




Verified torrent The Commitments


    Seeders : 1      Leechers : 2
Hash :AA95FE1811F2BDAA5F13DA037DD344270A768E5E
Added :1 Year+ by HannspreeVerified torrent uploader in Movies
Size :2.4 GB
Stream :WATCH ONLINE @ Movie4u


The Commitments
Free and Fast Download with Usenet 300GB+ free







Trackers List

Tracker NameLast CheckStatusSeedersLeechers




Torrent File Content (9 files)


The Commitments
    VIDEO_TS
          VIDEO_TS.BUP -
12 KB

          VIDEO_TS.IFO -
12 KB

          VIDEO_TS.VOB -
58 KB

          VTS_01_0.BUP -
80 KB

          VTS_01_0.IFO -
80 KB

          VTS_01_0.VOB -
58 KB

          VTS_01_1.VOB -
1023.97 MB

          VTS_01_2.VOB -
1023.97 MB

          VTS_01_3.VOB -
410.52 MB



Description



===============================================================================================
[ This torrent was uploaded by Hannspree on the 19th, June 2010 - I will be adding new torrents on a daily basis - Remember to seed ]
===============================================================================================
MOVIE TITLE: The Commitments
LANGUAGE: English
MOVIE SUBS: No - (subtitles if/when required)
===============================================================================================
MOVIE DESC:

Jason tragically lost his young son when their SUV exploded. Now fighting as a soldier in Iraq, the suicide bombings that occur
around him on a daily basis constantly remind him of losing his son. An army scientist approaches Jason about an experimental
virus that would create a squad of suicide bombers they could use against the enemy. Uncertain if he has already been
infected by the virus, Jason must struggle to decipher which explosions are real and which are in his head.
===============================================================================================
MOVIE SPECS:

GENERAL:
Complete name : The Commitments
Format : MPEG-PS
File size : 2.40 GB
Duration : 118 Minutes
Overall bit rate : 2 853 Kbps

VIDEO
ID : 224 (0xE0)
Format : MPEG Video
Format version : Version 2
Format profile : [email protected]
Format settings, BVOP : Yes
Format settings, Matrix : Default
Duration : 118 Minutes
Bit rate mode : Variable
Bit rate : 2 348 Kbps
Nominal bit rate : 9 352 Kbps
Width : 720 pixels
Height : 576 pixels
Display aspect ratio : 16:9
Frame rate : 24.000 fps
Standard : PAL
Color space : YUV
Chroma subsampling : 4:2:0
Bit depth : 8 bits
Scan type : Progressive
Scan order : 2:2:2:2:2:2:2:2:2:2:2:3 Pulldown
Bits/(Pixel*Frame) : 0.236
Stream size : 843 MiB (82%)

AUDIO:
ID : 128 (0x80)
Format : AC-3
Format/Info : Audio Coding 3
Mode extension : CM (complete main)
Duration : 118 Minutes
Bit rate mode : Constant
Bit rate : 448 Kbps
Channel(s) : 6 channels
Channel positions : Front: L C R, Side: L R, LFE
Sampling rate : 48.0 KHz
Stream size : 161 MiB (16%)
===============================================================================================
STREAM:

Video: MPEG2 Video 720x576 (16:9) [Video]
Audio: Dolby AC3 48000Hz stereo [AC3]
===============================================================================================
TOTAL FILE SIZE:

2.40 GB (2,578,186,240 bytes)
===============================================================================================
TORRENT CONTENTS:

9 Files in 2 Folders (VIDEO_TS & AUDIO_TS)
===============================================================================================
IMDB LINK:

http://www.imdb.com/title/tt1233551/
===============================================================================================
[ Another Free, high quality and ready too burn DVD movie from Hannspree. More will follow very soon. Please do be patient until then ]
===============================================================================================

Related torrents

Torrent NameAddedSizeSeedLeechHealth
24 days ago - in Music666.41 MB4013
2 months ago - in Movies4.96 GB00
3 months ago - in Movies3.2 GB00
3 months ago - in Movies1.1 GB00
1 Year+ - in Music82.53 MB10
1 Year+ - in Music107.27 MB12

Comments (0 Comments)




Please login or create a FREE account to post comments

Latest Searches

| kimberly schlapman | Recettear An Item Shops Tale Game | I spit on your grave 2010 bluray | the best of howard stern show | family matters 2 xxx | Wondershare Data Recovery 5 0 6 1 FULL Crack TechTools | harry potter goblet audio | PartyHardcore Tainster Party Hardcore Gone Crazy Vol 31 Part 2 | deadfish sailor moon crystal 720p | Bessy a Crystal |