Quick Browse
Movies
TV shows
Music
Games
Applications
Anime
Other
Facebook
Advertising

Friends
Torrent Download
Movie4u
1337x.to
Torrent Downloads




Verified torrent The Covenant 2006 BRRip H264 AAC-Rx


    Seeders : 30      Leechers : 21
Hash :36F9BA68F135937683679C32819E38543F9A6271
Added :1 Year+ by SAHIBGREWVerified torrent uploader in Movies
Size :1.44 GB
Stream :WATCH ONLINE @ Movie4u


The Covenant 2006 BRRip H264 AAC-Rx
Free and Fast Download with Usenet 300GB+ free







Trackers List

Tracker NameLast CheckStatusSeedersLeechers




Torrent File Content (7 files)


The Covenant 2006 BRRip H264 AAC-MS
     The Covenant 2006 BRRip H264 AAC-MS.mp4 -
1.44 GB

     The Covenant.jpg -
163.32 KB

     INFO.txt -
1.43 KB

     Torrent downloaded from AhaShare.com.txt -
59 bytes

     Torrent downloaded from thepiratebay.org.txt -
48 bytes

     Torrent downloaded from Demonoid.com.txt -
47 bytes

     tracked_by_h33t_com.txt -
23 bytes



Description



http://i865.photobucket.com/albums/ab211/revisionx/Movies/TheCovenant.jpg

The Covenant 2006 BRRip H264 AAC-Rx(Phoenix-RG).mp4
Format : MPEG-4
Format profile : Base Media
Codec ID : isom
File size : 1.44 GiB
Duration : 1h 37mn
Overall bit rate : 2 123 Kbps

IMDB: http://www.imdb.com/title/tt0475944

Video #1
Format : AVC
Format/Info : Advanced Video Codec
Format profile : [email protected]
Format settings, CABAC : Yes
Format settings, ReFrames : 3 frames
Codec ID : avc1
Codec ID/Info : Advanced Video Coding
Duration : 1h 37mn
Bit rate mode : Variable
Bit rate : 1 800 Kbps
Maximum bit rate : 7 784 Kbps
Width : 1 280 pixels
Height : 544 pixels
Display aspect ratio : 2.35
Frame rate mode : Constant
Frame rate : 23.976 fps
Resolution : 24 bits
Colorimetry : 4:2:0
Scan type : Progressive
Bits/(Pixel*Frame) : 0.108
Stream size : 1.22 GiB (85%)
Writing library : x264 core 65

Audio #2
Format : AAC
Format/Info : Advanced Audio Codec
Format version : Version 4
Format profile : LC
Format settings, SBR : No
Codec ID : 40
Duration : 1h 37mn
Bit rate mode : Variable
Bit rate : 319 Kbps
Maximum bit rate : 428 Kbps
Channel(s) : 6 channels
Channel positions : Front: L C R, Rear: L R, LFE
Sampling rate : 48.0 KHz
Resolution : 16 bits
Stream size : 222 MiB (15%)

http://i865.photobucket.com/albums/ab211/revisionx/Screenshot/vlcsnap-28325.jpg

http://i865.photobucket.com/albums/ab211/revisionx/Screenshot/vlcsnap-26958.jpg

Related torrents

Torrent NameAddedSizeSeedLeechHealth
1 Year+ - in Movies349.97 MB139
1 Year+ - in Movies1.23 GB17
1 Year+ - in Movies1.38 GB00
1 Year+ - in Movies425.52 MB00
1 Year+ - in Movies1.47 GB123

Comments (0 Comments)




Please login or create a FREE account to post comments

Latest Searches

| Black Buster Selvaggia gets DAP | Angel Wicky Jimena Lago Sam Bourne | hegre dominika restrained | doom guide | can you stand y | im jealous labrinth | Fresh off the boat 1 8 | ill never die alone nl subs | The Law in These Parts 2011 | thick pussy xxx |