Quick Browse
Movies
TV shows
Music
Games
Applications
Anime
Other
Facebook
Advertising

Friends
Torrent Download
Movie4u
1337x.to
Torrent Downloads




Verified torrent The Dark Lurking [DVD] [Eng] [AC3] [Hannspree]


    Seeders : 5      Leechers : 6
Hash :732B0FB19C38D87206133B243139612D3B4A6E54
Added :1 Year+ by HannspreeVerified torrent uploader in Movies
Size :1.34 GB
Stream :WATCH ONLINE @ Movie4u


The Dark Lurking [DVD] [Eng] [AC3] [Hannspree]
Free and Fast Download with Usenet 300GB+ free







Trackers List

Tracker NameLast CheckStatusSeedersLeechers




Torrent File Content (15 files)


The Dark Lurking
    The Dark Lurking [Covers]
          The Dark Lurking [DVD Cover].jpg -
49 KB

          The Dark Lurking [DVD Disc].jpg -
7.51 KB

          The Dark Lurking [Screens].jpg -
139.77 KB

    The Dark Lurking [DVD]
          VIDEO_TS/VIDEO_TS.BUP -
12 KB

          VIDEO_TS/VIDEO_TS.IFO -
12 KB

          VIDEO_TS/VIDEO_TS.VOB -
58 KB

          VIDEO_TS/VTS_01_0.BUP -
66 KB

          VIDEO_TS/VTS_01_0.IFO -
66 KB

          VIDEO_TS/VTS_01_0.VOB -
58 KB

          VIDEO_TS/VTS_01_1.VOB -
1023.97 MB

          VIDEO_TS/VTS_01_2.VOB -
346.52 MB

     The Dark Lurking.NFO -
4.28 KB

     Torrent downloaded from Ahashare.com.txt -
47 bytes

     Torrent downloaded from Demonoid.com.txt -
47 bytes

     Torrent downloaded from Genesis-sp.org.txt -
49 bytes



Description



=============================================================================================
[ Another free and high quality, ready to burn DVD - I will be adding new torrents on a daily basis - Remember to seed ]
=============================================================================================
MOVIE TITLE: The Dark Lurking
LANGUAGE: English
MOVIE SUBS: No - (subtitles if/when required)
BURN TESTED: Yes
FORMAT: Pal
GENRE: Action | Horror | Sci-Fi
RUNTIME: 97 Minutes
YEAR: 2010
IMDB LINK: http://www.imdb.com/title/tt1391579/
=============================================================================================
GENERAL MOVIE DESC:

Something has gone terribly wrong at research station 320, a secret research facility one mile beneath the earth's surface. All communications are gone, all means of escape destroyed and an extremely dangerous horde of rapidly mutating ancient flesh eating creatures are consuming everything in their path. Eight survivors of the outpost, two research subjects, three mercenaries, two research technicians and a medic barricade themselves inside a remote area of the facility with little food, almost no means of defense and little hope of rescue. Their one possible escape route is through thirteen levels of terror that will lead them to the surface. And one of them is not who they seem to be, but the darkness itself which has taken human form.
=============================================================================================
GENERAL MOVIE SPECS:

GENERAL:
Complete name : The Dark Lurking [DVD]
Format : MPEG-PS
File size : 1.33 GB (1,437,543,100 bytes)
Duration : 97 Minutes
Overall bit rate : 1 946 Kbps

VIDEO:
ID : 224 (0xE0)
Format : MPEG Video
Format version : Version 2
Format profile : [email protected]
Format settings, BVOP : Yes
Format settings, Matrix : Default
Duration : 97 Minutes
Bit rate mode : Variable
Bit rate : 1 716 Kbps
Nominal bit rate : 9 608 Kbps
Width : 720 pixels
Height : 576 pixels
Display aspect ratio : 16:9
Frame rate : 25.000 fps
Standard : PAL
Color space : YUV
Chroma subsampling : 4:2:0
Bit depth : 8 bits
Scan type : Progressive
Bits/(Pixel*Frame) : 0.165
Stream size : 903 MiB (88%)

AUDIO:
ID : 128 (0x80)
Format : AC-3
Format/Info : Audio Coding 3
Mode extension : CM (complete main)
Duration : 97 Minutes
Bit rate mode : Constant
Bit rate : 192 Kbps
Channel(s) : 2 channels
Channel positions : Front: L R
Sampling rate : 48.0 KHz
Stream size : 101 MiB (10%)
=============================================================================================
TRACKERS:
http://inferno.demonoid.com:3399/announce
http://tracker.openbittorrent.com/announce
http://tracker.publicbt.com:80/announce
http://tracker.torrentbox.com:2710/announce
http://tracker.publicbt.com/announce
http://tracker.bittorrent.am:80/announce
http://publicbt.ath.cx/announce
http://10.rarbg.com/announce
http://denis.stalker.h3q.com/announce
http://denis.stalker.h3q.com:6969/announce
http://www.genesis-sp.org:2710/announce
http://genesis.1337x.org:1337/announce
http://nemesis.1337x.org/announce
http://exodus.1337x.org/announce
http://fr33dom.h33t.com:3310/announce
=============================================================================================
FOOT NOTE:
If you are happy with this download, it would be nice to here your views or comments that you might have!!
If so, "Thank-Q" in advance, and for downloading this file and for sharing... Enjoy
=============================================================================================

Related torrents

Torrent NameAddedSizeSeedLeechHealth
Verified torrent
1 Year+ - in Movies1.55 GB229
1 Good
Verified torrent
1 Year+ - in Movies1.63 GB239
Verified torrent
1 Year+ - in Movies1.22 GB01
Verified torrent
1 Year+ - in Movies2.74 GB16
Verified torrent
1 Year+ - in Movies1.53 GB62

Comments (0 Comments)




Please login or create a FREE account to post comments

Latest Searches

| stone cold | man fuck boy | Haikyuu Season 3 Episode 9 | lonely call | hull fc v warrington wolves | Byomkesh bakshi 2015 | ancient aliens season 10 | game of thrones season episodes 1 | j e hardin | desi cute couples fu ked on bed nicely |