Quick Browse
Movies
TV shows
Music
Games
Applications
Anime
Other
Facebook
Advertising

Friends
Torrent Download
Movie4u
1337x.to
Torrent Downloads




Verified torrent The Darkest Hour 2011 TS Xvid READNFO-26K


    Seeders : 1      Leechers : 0
Hash :74629957109EEBB7FDBBE42399D788C901EAACD6
Added :1 Year+ by memory100Verified torrent uploader in Movies
Size :1.15 GB
Stream :WATCH ONLINE @ Movie4u


The Darkest Hour 2011 TS Xvid READNFO-26K
Free and Fast Download with Usenet 300GB+ free







Trackers List

Tracker NameLast CheckStatusSeedersLeechers




Torrent File Content (7 files)


The Darkest Hour 2011 TS Xvid READNFO-26K
     sample.avi -
30.03 MB

     sceneunderground.org.txt -
77 bytes

     att-networks.com.txt -
39 bytes

     Torrent downloaded from Demonoid.me.txt -
46 bytes

     The Darkest Hour 2011 TS Xvid READNFO-26K.avi -
1.12 GB

     The Darkest Hour 2011 TS Xvid READNFO-26K.nfo -
3.53 KB

     HDSceneRG.txt -
115 bytes



Description



http://img638.imageshack.us/img638/2414/darkeys.jpg

[code]
The Darkest Hour 2011 TS Xvid READNFO-26K

Imdb:
http://www.imdb.com/title/tt1093357/

Plot:
In Moscow, five young people lead the charge against an alien race who have attacked Earth via our power supply.

Sources:
RUSSIAN VIDEO
UNKNOWN TS! THNXS TO BOTH!!

Notes:
WHY READNFO the russian cam was very bad!!!! added quite a few filters to get the video to look nice!!!
as for the audio it was good :P i did have the audio for this movie last night.. was like 3 a.m...to late for me! so i went to sleep..was gonna work on it this mornin... saw unknown up a TS! thnxs bro good work!
that been said added filter to increase the overall birghtness of the video as it was veyr veyr dark!
added few sharpness filters :) so enjoy!
a new source coming your way soon!!

Greetz:
Xtreme Encode|FYA|ILLUMANTI|CM8|RX|VISION|HDSCENE|NIGHTMAREZ|xTriLL|DTRG|CRYS|REMIXHD|BIDA
To all the people who have helped me :P you know who you are

Anything to offer email us @: [email protected]

Video
ID : 0
Format : MPEG-4 Visual
Format profile : Advanced [email protected]
Format settings, BVOP : 2
Format settings, QPel : No
Format settings, GMC : No warppoints
Format settings, Matrix : Default (H.263)
Codec ID : XVID
Codec ID/Hint : XviD
Duration : 1h 23mn
Bit rate : 1 800 Kbps
Width : 640 pixels
Height : 272 pixels
Display aspect ratio : 2.35:1
Frame rate : 25.000 fps
Color space : YUV
Chroma subsampling : 4:2:0
Bit depth : 8 bits
Scan type : Progressive
Compression mode : Lossy
Bits/(Pixel*Frame) : 0.414
Stream size : 1.04 GiB (93%)
Writing library : XviD 63

Audio
ID : 1
Format : MPEG Audio
Format version : Version 1
Format profile : Layer 3
Codec ID : 55
Codec ID/Hint : MP3
Duration : 1h 23mn
Bit rate mode : Constant
Bit rate : 128 Kbps
Channel(s) : 2 channels
Sampling rate : 44.1 KHz
Compression mode : Lossy
Stream size : 76.0 MiB (7%)
Alignment : Aligned on interleaves
Interleave, duration : 40 ms (1.00 video frame)

[/code]
Screens:
http://img822.imageshack.us/img822/2087/vlcsnap2011122712h33m28.png

http://img811.imageshack.us/img811/2166/vlcsnap2011122712h33m38.png

http://img3.imageshack.us/img3/34/vlcsnap2011122712h33m42.png

http://img201.imageshack.us/img201/797/vlcsnap2011122712h33m45.png

http://img190.imageshack.us/img190/1308/vlcsnap2011122712h33m55.png


http://img851.imageshack.us/img851/5503/26ks.jpg

Thank you smallz for banner!

Related torrents

Torrent NameAddedSizeSeedLeechHealth
Verified torrent
1 Year+ - in Movies1.08 GB00
1 Year+ - in Movies842.35 MB03
1 Year+ - in Movies842.35 MB041
1 Year+ - in Movies720.26 MB00
1 Year+ - in Movies720.26 MB00

Comments (0 Comments)




Please login or create a FREE account to post comments

Latest Searches

| brandnewamateurs aria | kasparov how to play najdorf | hamid khan | voluptuous connie carter sensuously blow bf and lets him creampie her pir te mp4 | passion hd dakota skye teen valentine new feb 6 2015 mp4 | my wifes hot friend aletta ocean | Tools of Titans The Tactics Routines and Habits of Billionaires | youre worthy | Security Space Anti Virus | Hatsuyuki Dragon Ball Kai 2014 005 |