Quick Browse
Movies
TV shows
Music
Games
Applications
Anime
Other
Facebook
Advertising

Friends
Torrent Download
Movie4u
1337x.to
Torrent Downloads




Verified torrent The Decoy Bride 2012 BRRip XviD AC3-FTW


    Seeders : 1      Leechers : 1
Hash :D3F9F0B1E558BEFBD496DCEEA6A3809ADA325A2E
Added :1 Year+ by robyrsVerified torrent uploader in Movies
Size :1.02 GB
Stream :WATCH ONLINE @ Movie4u


The Decoy Bride 2012 BRRip XviD AC3-FTW
Free and Fast Download with Usenet 300GB+ free







Trackers List

Tracker NameLast CheckStatusSeedersLeechers




Torrent File Content (8 files)


The Decoy Bride 2012 BRRip XviD AC3-FTW
     The Decoy Bride 2012 BRRip XviD AC3-FTW.avi -
1.01 GB

     ENG.sub -
8.34 MB

     darkcore.me.txt -
834 bytes

     HD File info.txt -
727 bytes

     sceneunderground.org.txt -
77 bytes

     Torrent downloaded from AhaShare.com.txt -
59 bytes

     Torrent downloaded from Suprnova.me.txt -
42 bytes

     Torrent downloaded from Rarbg.com.txt -
33 bytes



Description



The Decoy Bride 2012 BRRip XviD AC3-FTW

Story:

When the world's media descend on the remote Scottish island where a Hollywood actress is attempting to get

married, a local girl is hired as a decoy bride to put the paparazzi off the scent.

http://www.imdb.com/title/tt1657299/

Source: FQM....THX

Format : AVI
Format/Info : Audio Video Interleave
Duration : 2h 12mn
Overall bit rate : 1 694 Kbps
Writing application : Lavf51.12.1
Writing library : VirtualDub build 33848/release

Video
ID : 0
Format : MPEG-4 Visual
Format profile : Advanced [email protected]
Format settings, BVOP : Yes
Format settings, QPel : No
Format settings, GMC : No warppoints
Format settings, Matrix : Default (H.263)
Muxing mode : Packed bitstream
Codec ID : XVID
Codec ID/Hint : XviD
Duration : 2h 12mn
Bit rate : 1 492 Kbps
Width : 720 pixels
Height : 304 pixels
Display aspect ratio : 2.35:1
Frame rate : 25.000 fps
Color space : YUV
Chroma subsampling : 4:2:0
Bit depth : 8 bits
Scan type : Progressive
Bits/(Pixel*Frame) : 0.273
Stream size : 1.02 GiB (91%)
Writing library : XviD 1.2.1 (UTC 2008-12-04)

Audio
ID : 1
Format : MPEG Audio
Format version : Version 1
Format profile : Layer 3
Mode : Joint stereo
Mode extension : MS Stereo
Codec ID : 55
Codec ID/Hint : MP3
Duration : 2h 12mn
Bit rate mode : Constant
Bit rate : 192 Kbps
Channel(s) : 2 channels
Stream size : 188 MiB (22%)
Alignment : Split accross interleaves
Interleave, duration : 40 ms (1.00 video frame)
Interleave, preload duration : 500 ms
Writing library : LAME3.98.2

Audio: untouched

Note: HD FILE REQUIREMENTS....ON

Workdone:
Well getting pm's like crazy...some believe it and some dont, but yes we removed the watermark, but only 90%

of it. Then we had a choice to blur it or not for the finishing touch. If we didnt litely blur the area you

would be able to see the outline of the watermark, so we litely blur it. Last 2 screenshots will show

examples. After that was all done, it was a pain to get this file saved in this new program and we had to

read up on it. After that was done we insert it into vdub and did our usual, levels, brightness,contrast,and

litely ran a smoother.

ENJOY THIS FINE RELEASE :)

Related torrents

Torrent NameAddedSizeSeedLeechHealth
1 Year+ - in Movies702.97 MB756
1 Year+ - in Movies1.47 GB00
4 months ago - in Movies1.12 GB00
1 Year+ - in Movies911.35 MB00
Verified torrent
1 Year+ - in Movies1.3 GB102253

Comments (0 Comments)




Please login or create a FREE account to post comments

Latest Searches

| connectify dispatch 5 0 1 crack | blanche pack | i know u wanna fuck | gambino love | Military Pack Part1 unitypackage | T i why you mad | teschio di cristallo | Kampioen zijn blijft plezant 2 | verdammt es pisst | brazzers earth |