Quick Browse
Movies
TV shows
Music
Games
Applications
Anime
Other
Facebook
Advertising

Friends
Torrent Download
Movie4u
1337x.to
Torrent Downloads




Verified torrent The Descendants 2011 DVDSCR XViD AC3-26K


    Seeders : 582      Leechers : 547
Hash :C3C75E2CA251E8F4E7984B667BF43E7D7A2EC38D
Added :1 Year+ by memory100Verified torrent uploader in Movies
Size :1.57 GB
Stream :WATCH ONLINE @ Movie4u


The Descendants 2011 DVDSCR XViD AC3-26K
Free and Fast Download with Usenet 300GB+ free







Trackers List

Tracker NameLast CheckStatusSeedersLeechers




Torrent File Content (7 files)


The Descendants 2011 DVDSCR XViD AC3-26K
     HDSceneRG.txt -
115 bytes

     The Descendants 2011 DVDSCR XViD AC3-26K.avi -
1.54 GB

     The Descendants 2011 DVDSCR XViD AC3-26K.nfo -
3.25 KB

     Torrent downloaded from Demonoid.me.txt -
46 bytes

     att-networks.com.txt -
39 bytes

     sample.avi -
25.52 MB

     sceneunderground.org.txt -
77 bytes



Description



http://img534.imageshack.us/img534/2526/thedescen.jpg

[code]
The Descendants 2011 DVDSCR XViD AC3-26K

Imdb:
http://www.imdb.com/title/tt1033575/

Plot:
A land baron tries to re-connect with his two daughters after his wife suffers a boating accident.

Sources:
ZOMBIESS! THNXS

Notes:
ENJOY!! ADDED FEW FILTERS TO THE VIDEO TO MAKE IT LOOK NICE AND ALSO IS IN SYNC!

Greetz:
Xtreme Encode|FYA|ILLUMANTI|CM8|RX|VISION|HDSCENE|NIGHTMAREZ|xTriLL|DTRG|CRYS|REMIXHD|BIDA|RX|REFILL|INSPiRAL|SIC
To all the people who have helped me :P you know who you are

Anything to offer email us @: [email protected]

Video
ID : 0
Format : MPEG-4 Visual
Format profile : Advanced [email protected]
Format settings, BVOP : 2
Format settings, QPel : No
Format settings, GMC : No warppoints
Format settings, Matrix : Default (H.263)
Codec ID : XVID
Codec ID/Hint : XviD
Duration : 2h 0mn
Bit rate : 1 614 Kbps
Width : 720 pixels
Height : 304 pixels
Display aspect ratio : 2.35:1
Frame rate : 23.976 fps
Color space : YUV
Chroma subsampling : 4:2:0
Bit depth : 8 bits
Scan type : Progressive
Compression mode : Lossy
Bits/(Pixel*Frame) : 0.308
Stream size : 1.36 GiB (88%)
Writing library : XviD 63

Audio
ID : 1
Format : AC-3
Format/Info : Audio Coding 3
Mode extension : CM (complete main)
Codec ID : 2000
Duration : 1h 55mn
Bit rate mode : Constant
Bit rate : 224 Kbps
Channel(s) : 2 channels
Channel positions : Front: L R
Sampling rate : 48.0 KHz
Bit depth : 16 bits
Compression mode : Lossy
Stream size : 185 MiB (12%)
Alignment : Aligned on interleaves
Interleave, duration : 33 ms (0.80 video frame)

[/code]
Screens:
http://img827.imageshack.us/img827/601/vlcsnap2012011621h00m29.png

http://img233.imageshack.us/img233/8948/vlcsnap2012011621h00m41.png

http://img823.imageshack.us/img823/9631/vlcsnap2012011621h00m53.png

http://img27.imageshack.us/img27/2087/vlcsnap2012011621h01m00.png

http://img841.imageshack.us/img841/3118/vlcsnap2012011621h01m04.png

http://img62.imageshack.us/img62/8258/vlcsnap2012011621h01m07.png


http://img851.imageshack.us/img851/5503/26ks.jpg

Thank you smallz for banner!

Related torrents

Torrent NameAddedSizeSeedLeechHealth
1 Year+ - in Movies1.43 GB21959
1 Year+ - in Movies1.43 GB496
1 Good
1 Year+ - in Movies1.43 GB10851
1 Year+ - in Movies1.43 GB126
1 Year+ - in Movies1.43 GB11

Comments (1 comment)




szhan

Added 1 Year+
good rip,thank very much....
Please login or create a FREE account to post comments

Latest Searches

| saint rar | brian auger trinity open | Earth Wind and Fire | Packers Texans | how can l fall | avluv maddy | two blocks from | daily show 12 2016 | Room 112 1998 | BigTitsAtSchool Blanche Bradburry |