Quick Browse
Movies
TV shows
Music
Games
Applications
Anime
Other
Facebook
Advertising

Friends
Torrent Download
Movie4u
1337x.to
Torrent Downloads




Verified torrent The Devil Inside 2012 CAM READNFO XviD AC3-26K


    Seeders : 212      Leechers : 32
Hash :7D8A6B6D9AC54365157924B1F8CE2EA8D0ACDFA5
Added :1 Year+ by memory100Verified torrent uploader in Movies
Size :1.1 GB
Stream :WATCH ONLINE @ Movie4u


The Devil Inside 2012 CAM READNFO XviD AC3-26K
Free and Fast Download with Usenet 300GB+ free







Trackers List

Tracker NameLast CheckStatusSeedersLeechers




Torrent File Content (7 files)


The Devil Inside 2012 CAM READNFO XviD AC3-26K
     HDSceneRG.txt -
115 bytes

     The Devil Inside 2012 CAM READNFO XviD AC3-26K.avi -
1.07 GB

     The Devil Inside 2012 CAM READNFO XviD AC3-26K.nfo -
3.42 KB

     Torrent downloaded from Demonoid.me.txt -
46 bytes

     att-networks.com.txt -
39 bytes

     sample.avi -
33.35 MB

     sceneunderground.org.txt -
77 bytes



Description



http://img580.imageshack.us/img580/3352/devilqv.jpg

[code]
The Devil Inside 2012 CAM READNFO XviD AC3-26K

Imdb:
http://www.imdb.com/title/tt1560985/

Plot:
In Italy, a woman becomes involved in a series of unauthorized exorcisms during her mission to discover

what happened to her mother, who allegedly murdered three people during her own exorcism.

Sources:
Arthur.Christmas.2011.Read.Nfo.NTSC.DVDSCR.DVDR-JKR-THNXS!!!!!!!!!!!!!

Notes:
WOW A DVDSCR!!! WELL ADDED A FEW FILTERS TO THE VIDEO TO MAKE IT LOOK NICE!!
:p ENJOY!

Greetz:
Xtreme

Encode|FYA|ILLUMANTI|CM8|RX|VISION|HDSCENE|NIGHTMAREZ|xTriLL|DTRG|CRYS|REMIXHD|BIDA|RX|REFILL|INSPiRAL|SI

C
To all the people who have helped me :P you know who you are

Anything to offer email us @: [email protected]

Video
ID : 0
Format : MPEG-4 Visual
Format profile : Advanced [email protected]
Format settings, BVOP : 2
Format settings, QPel : No
Format settings, GMC : No warppoints
Format settings, Matrix : Default (H.263)
Muxing mode : Packed bitstream
Codec ID : XVID
Codec ID/Hint : XviD
Duration : 1h 15mn
Bit rate : 1 796 Kbps
Width : 624 pixels
Height : 320 pixels
Display aspect ratio : 1.950
Frame rate : 29.970 fps
Color space : YUV
Chroma subsampling : 4:2:0
Bit depth : 8 bits
Scan type : Progressive
Compression mode : Lossy
Bits/(Pixel*Frame) : 0.300
Stream size : 967 MiB (89%)
Writing library : XviD 64

Audio
ID : 1
Format : AC-3
Format/Info : Audio Coding 3
Mode extension : CM (complete main)
Codec ID : 2000
Duration : 1h 15mn
Bit rate mode : Constant
Bit rate : 224 Kbps
Channel(s) : 2 channels
Channel positions : Front: L R
Sampling rate : 44.1 KHz
Bit depth : 16 bits
Compression mode : Lossy
Stream size : 121 MiB (11%)
Alignment : Split accross interleaves
Interleave, duration : 9351 ms (280.24 video frames)

[/code]
Screens:
http://img844.imageshack.us/img844/6370/vlcsnap2012011616h50m44.png

http://img210.imageshack.us/img210/1153/vlcsnap2012011616h50m58.png

http://img268.imageshack.us/img268/8725/vlcsnap2012011616h51m04.png

http://img585.imageshack.us/img585/9461/vlcsnap2012011616h51m19.png



http://img851.imageshack.us/img851/5503/26ks.jpg

Thank you smallz for banner!

Related torrents

Torrent NameAddedSizeSeedLeechHealth
Verified torrent
1 Year+ - in Movies773.94 MB10
Verified torrent
1 Year+ - in Movies1.02 GB00
1 Year+ - in Movies896.86 MB11
1 Year+ - in Movies895.86 MB10
7 months ago - in Movies1.56 GB00

Comments (0 Comments)




Please login or create a FREE account to post comments

Latest Searches

| the crown n subs | shankar norah jones | mike and dave need wedding dates sub | Keraku Meguri | Best Android Games Collection Pack 2 41 Games SadeemPC | Season s greeting | Wayne s world 2 soundtrack | scrub soundtrack | Pacific Heat S01E01 Webrip x264 MFO mp4 | James Stewart 1941 |