Quick Browse
Movies
TV shows
Music
Games
Applications
Anime
Other

Donate and Support

Friends
Torrents.me
Torrent Download
Free Movies
1337x
RARBG
Torrent Downloads

Verified torrent The Dilemma 2011 DVDRip-MXMG


    Seeders : 319      Leechers : 91
Hash :BA459A34ED95FBC39090AE6B2737FA69B0724EBB
Added :1 Year+ by MXMGVerified torrent uploader in Movies
Size :702.03 MB
Stream :Watch Full Movies Online @ Movie4u
Share :


The Dilemma 2011 DVDRip-MXMG
Anonymous and Direct Download 300GB+ free







Warning! Do not Download Torrents Without a VPN!
Your IP Address is .   And Location is
Your Internet Provider and Government can track your torrent Activity!  Hide your IP ADDRESS with a VPN!
We Strongly Recommend Using SpyOFF Torrent VPN to Anonymize your Torrenting. It's FREE For 15 Days!

Note :

Please Update (Trackers Info) Before Downloading Torrents to See Updated Seeders And Leechers for Batter Download Speed.

Trackers List

Tracker NameLast CheckStatusSeedersLeechers




Torrent File Content (5 files)


The Dilemma 2011 DVDRip-MXMG
     The Dilemma.avi -
701.88 MB

     The Dilemma[subs]English.srt -
142.33 KB

     MXMG.nfo -
2 KB

     Torrent downloaded from Demonoid.me.txt -
46 bytes

     Torrent downloaded from Silvertorrents.me.txt -
41 bytes



Description



http://img709.imageshack.us/img709/1281/blankz.png





http://img64.imageshack.us/img64/4286/mxmg.jpg


[quote]
Format : AVI
Format/Info : Audio Video Interleave
File size : 702 MiB
Duration : 1h 51mn
Overall bit rate : 880 Kbps
Writing application : VirtualDubMod 1.5.10.3 | www.virtualdub-fr.org || (build 2550/release)
Writing library : VirtualDubMod build 2550/release

Video
ID : 0
Format : MPEG-4 Visual
Format profile : Advanced [email protected]
Format settings, BVOP : 1
Format settings, QPel : No
Format settings, GMC : No warppoints
Format settings, Matrix : Default (H.263)
Codec ID : XVID
Codec ID/Hint : XviD
Duration : 1h 51mn
Bit rate : 743 Kbps
Width : 640 pixels
Height : 272 pixels
Display aspect ratio : 2.35:1
Frame rate : 23.976 fps
Color space : YUV
Chroma subsampling : 4:2:0
Bit depth : 8 bits
Scan type : Progressive
Compression mode : Lossy
Bits/(Pixel*Frame) : 0.178
Stream size : 592 MiB (84%)
Writing library : XviD 63

Audio
ID : 1
Format : MPEG Audio
Format version : Version 1
Format profile : Layer 3
Codec ID : 55
Codec ID/Hint : MP3
Duration : 1h 51mn
Bit rate mode : Constant
Bit rate : 128 Kbps
Channel(s) : 2 channels
Sampling rate : 48.0 KHz
Compression mode : Lossy
Stream size : 102 MiB (15%)
Alignment : Aligned on interleaves
Interleave, duration : 42 ms (1.00 video frame)
Interleave, preload duration : 504 ms
Writing library : LAME3.98r
Encoding settings : -m s -V 4 -q 2 -lowpass 17 -b 128
[/quote]


Screens :
http://img684.imageshack.us/img684/2374/screenshot2011042122h44.png


http://img20.imageshack.us/img20/2374/screenshot2011042122h44.png


http://img151.imageshack.us/img151/2374/screenshot2011042122h44.png


http://img811.imageshack.us/img811/2374/screenshot2011042122h44.png


http://img811.imageshack.us/img811/5660/screenshot2011042122h44u.png


http://img834.imageshack.us/img834/2374/screenshot2011042122h44.png



[quote]
# Latest codecs used to deliver Top Quality Releases
# Seeded at high speeds to grant super Download speeds
# All DivX/XviD Players compatible and also PS3, Popcorn Hour, WD & XBOX 360*
[/quote]

[code]
Seedboxes provided by http://www.chociz.com/
A seedbox is a private dedicated server used for the uploading and downloading of digital files.
Speed - You can sit back, relax and watch in amazement at how fast the torrents finish.
Secure and Safe - With a seedbox, you don’t even need to use a BitTorrent client on your home computer!
Use Private Trackers - You can register @ Private Trackers and seed like Hell!

Get a Cheap Seedbox choosing for your taste - [url]http://www.chociz.com/whmcs/cart.php[/url]
[/code]


Related torrents

Torrent NameAddedSizeSeedLeechHealth
1 Year+ - in Other1.35 GB00
1 Year+ - in Other2.13 GB00
1 Year+ - in Movies1.4 GB00
1 Year+ - in Movies2.92 GB21
1 Year+ - in Movies726.39 MB00

Comments (0 Comments)




Please login or create a FREE account to post comments

Latest Searches

| Genius S01E07 italian | angel 2005 720p | avatar 2009 hevc x265 | Interview with the vampire 1994 dual | attraction 2017 webrip | Pure18 Jessica Lynn | Swollen Members Balance 1999 320 | how i met your mother 1080p utr | Peirani Parisien Duo Art | blame calvin harris feat john newman jacob plant remix |