Quick Browse
Movies
TV shows
Music
Games
Applications
Anime
Other
Facebook
Advertising

Friends
Torrent Download
Movie4u
1337x.to
Torrent Downloads




Verified torrent The Double 2011 DVDSCR XviD AC3-26K


    Seeders : 1      Leechers : 0
Hash :F918A585EC9E534A164595F522327638C2E0D65B
Added :1 Year+ by memory100Verified torrent uploader in Movies
Size :1.22 GB
Stream :WATCH ONLINE @ Movie4u


The Double 2011 DVDSCR XviD AC3-26K
Free and Fast Download with Usenet 300GB+ free







Trackers List

Tracker NameLast CheckStatusSeedersLeechers




Torrent File Content (7 files)


The Double 2011 DVDSCR XviD AC3-26K
     att-networks.com.txt -
39 bytes

     HDSceneRG.txt -
115 bytes

     sample.avi -
26.52 MB

     sceneunderground.org.txt -
77 bytes

     The Double 2011 DVDSCR XviD AC3-26K.avi -
1.19 GB

     The Double 2011 DVDSCR XviD AC3-26K.nfo -
3.17 KB

     Torrent downloaded from Demonoid.me.txt -
46 bytes



Description



http://img685.imageshack.us/img685/1732/thedouble.jpg

[code]
The Double 2011 DVDSCR XviD AC3-26K

Imdb:
http://www.imdb.com/title/tt1646980/

Plot:
A retired CIA operative is paired with a young FBI agent to unravel the mystery of a senator's murder,

with all signs pointing to a Soviet assassin.

Sources:
TO WHOEVER GOT THE SOURCE OUT :)

Notes:
no dvdr out yet .. the so called encoded video as bad bitrate... take this or leave it :)
added few filters to the video to make it look nice as much as possible :)


Greetz:
Xtreme Encode|FYA|ILLUMANTI|CM8|RX|VISION|HDSCENE|NIGHTMAREZ|xTriLL|DTRG|CRYS|REMIXHD|BIDA|RX|REFILL|

INSPiRAL|SIC
To all the people who have helped me :P you know who you are

Anything to offer email us @: [email protected]

Video
ID : 0
Format : MPEG-4 Visual
Format profile : Advanced [email protected]
Format settings, BVOP : 2
Format settings, QPel : No
Format settings, GMC : No warppoints
Format settings, Matrix : Default (H.263)
Codec ID : XVID
Codec ID/Hint : XviD
Duration : 1h 34mn
Bit rate : 1 600 Kbps
Width : 720 pixels
Height : 304 pixels
Display aspect ratio : 2.35:1
Frame rate : 23.976 fps
Color space : YUV
Chroma subsampling : 4:2:0
Bit depth : 8 bits
Scan type : Progressive
Compression mode : Lossy
Bits/(Pixel*Frame) : 0.305
Stream size : 1.06 GiB (89%)
Writing library : XviD 63

Audio
ID : 1
Format : AC-3
Format/Info : Audio Coding 3
Mode extension : CM (complete main)
Codec ID : 2000
Duration : 1h 34mn
Bit rate mode : Constant
Bit rate : 192 Kbps
Channel(s) : 2 channels
Channel positions : Front: L R
Sampling rate : 48.0 KHz
Bit depth : 16 bits
Compression mode : Lossy
Stream size : 130 MiB (11%)
Alignment : Aligned on interleaves
Interleave, duration : 42 ms (1.00 video frame)

[/code]
Screens:
http://img832.imageshack.us/img832/8638/vlcsnap2012010920h33m41.png

http://img855.imageshack.us/img855/1355/vlcsnap2012010920h33m57.png

http://img38.imageshack.us/img38/610/vlcsnap2012010920h34m03.png


http://img851.imageshack.us/img851/5503/26ks.jpg
#
Thank you smallz for banner!

Related torrents

Torrent NameAddedSizeSeedLeechHealth
Verified torrent
1 Year+ - in Movies1.93 GB10
1 Comments
1 Good
Verified torrent
1 Year+ - in Movies1.57 GB582547
1 Year+ - in Movies1.99 GB141
1 Year+ - in Movies1.99 GB00
1 Year+ - in Movies1.12 GB3113

Comments (0 Comments)




Please login or create a FREE account to post comments

Latest Searches

| august taylor double | steve jobs boyle2015 bykenzo dvd9 iso | MUPT 003 | top 25 billboard rb 2016 | Bella Baby Czechian Blonde Bella Babys Street Pickup | adrenalina jennifer lopez | POVD Karlie Brooks | Westworld S01E10 WEBRip x264 | 7 Series 1 Episode 1 | City By the Sea 2002 720p BluRay x264 Dual Audio |