Quick Browse
Movies
TV shows
Music
Games
Applications
Anime
Other
Facebook
Friends
Torrent Download
Free Movies
1337x.to
Torrent Downloads

Verified torrent The Eagle 2011 R5 READNFO XViD - IMAGiNE


    Seeders : 41      Leechers : 8
Hash :C056AB6B1B7214BB268FE18EAE4537E4358117E5
Added :1 Year+ by memory100Verified torrent uploader in Movies
Size :1.59 GB
Stream :Watch Full Movies Online @ Movie4u
Share :


The Eagle 2011 R5 READNFO XViD - IMAGiNE
Anonymous and Direct Download 300GB+ free







Warning! Do not Download Torrents Without a VPN!
Your IP Address is .   And Location is
Your Internet Provider and Government can track your torrent Activity!  Hide your IP ADDRESS with a VPN!
We Strongly Recommend Using SpyOFF Torrent VPN to Anonymize your Torrenting. It's FREE For 15 Days!

Note :

Please Update (Trackers Info) Before Downloading Torrents to See Updated Seeders And Leechers for Batter Download Speed.

Trackers List

Tracker NameLast CheckStatusSeedersLeechers




Torrent File Content (8 files)


The Eagle 2011 R5 READNFO XViD - IMAGiNE
     Budget seedboxs.txt -
44 bytes

     NW RG.nfo -
12.96 KB

     Pleas read!!!!.txt -
135 bytes

     The Eagle 2011 R5 READNFO XViD - IMAGiNE SAMPLE.avi -
8.08 MB

     The Eagle 2011 R5 READNFO XViD - IMAGiNE.NFO -
5.03 KB

     The Eagle 2011 R5 READNFO XViD - IMAGiNE.avi -
1.58 GB

     Torrent downloaded from Demonoid.me.txt -
46 bytes

     Vision Tracker.txt -
109 bytes



Description



http://img848.imageshack.us/img848/7205/potser.jpg

[code]
The Eagle 2011 R5 READNFO XViD - IMAGiNE
Ripper ...........:IMAGiNE IMDB Rating.......:6.6/10
Video Codec.......:XVID Release Date......:13/04/11
Audio Codec.......:MP3 Theatre Date......:11/02/11
Audio Bitrate.....:128 Runtime...........:1h 49mn
Subtitles.........:NIL Language..........:ENGLISH
Resolution........:720 x 304 IMDb URL.......... http://www.imdb.com/title/tt1034389/
DETAILS:

Video
ID : 0
Format : MPEG-4 Visual
Format profile : Advanced [email protected]
Format settings, BVOP : Yes
Format settings, QPel : No
Format settings, GMC : No warppoints
Format settings, Matrix : Default (MPEG)
Muxing mode : Packed bitstream
Codec ID : XVID
Codec ID/Hint : XviD
Duration : 1h 49mn
Bit rate : 1 666 Kbps
Width : 720 pixels
Height : 304 pixels
Display aspect ratio : 2.35:1
Frame rate : 25000 fps
Color space : YUV
Chroma subsampling : 4:2:
Bit depth : 8 bits
Scan type : Progressive
Compression mode : Lossy
Bits/(Pixel*Frame) : 0.305
Stream size : 1.27 GiB (92%)
Writing library : XviD 63


Audio
ID : 1
Format : MPEG Audio
Format version : Version 1
Format profile : Layer 3
Mode : Joint stereo
Mode extension : MS Stereo
Codec ID : 55
Codec ID/Hint : MP3
Duration : 1h 49mn
Bit rate mode : Constant
Bit rate : 128 Kbps
Channel(s) : 2 channels
Sampling rate : 44.1 KHz
Compression mode : Lossy
Stream size : 100 MiB (7%)
Alignment : Split accross interleaves
Interleave, duration : 40 ms (1.00 video frame)
Writing library : LAME3.98r
Encoding settings : -m j -V 4 -q 2 -lowpass 17 -b 128

SOURCES:
VIDEO: DVD9 ELEKTRI4KA ... Thanks
AUDIO: Thanks Matey

NOTES:
IMAGiNE bringing you another release.......... The Eagle R5 2011....

Here we are with our encode of this movie for you all.. Now for the video we just made a script
containing, towned down the yellow adjusted rgb and black levels and saturation along with a sharpen filter
With the audio it was just a case of syncing the audio to our encode...
Fri.... hardcode subs for all the non english parts and will this work on ps3 who knows
Enjoy
[/code]
Screens:
http://img859.imageshack.us/img859/5701/54079182.jpg

http://img251.imageshack.us/img251/9524/23970329.jpg

http://img718.imageshack.us/img718/3263/65927978.jpg

Related torrents

Torrent NameAddedSizeSeedLeechHealth
Verified torrent
1 Year+ - in Movies1.58 GB75787
1 Year+ - in Movies1.59 GB11
1 Year+ - in Movies1.59 GB120328
Verified torrent
1 Year+ - in Movies774.81 MB14
1 Year+ - in Movies1.39 GB00

Comments (0 Comments)




Please login or create a FREE account to post comments

Latest Searches

| billy mini gangbang | Missing Everything but the Girl | Watson Meg | new m4a itunes | charming empire | brand new w | Space Probes 1of6 Voyager The Grand Tour 720p HDTV x264 AAC mp4 | john wick 2 w | boardwalk empire season 1 | The Royal Tenenbaums |