Quick Browse
Movies
TV shows
Music
Games
Applications
Anime
Other

Donate and Support

Friends
Torrents.me
Torrent Download
Free Movies
1337x
RARBG
Torrent Downloads

The Exorcist Extended DC (1973) m-HD 480p AC3 Hindi -=GHunio=-[Filmy.pk]


    Seeders : 0      Leechers : 0
Hash :D786F8034B93674784B16A6CB96CFB1551FFA6D6
Added :1 Year+ by Nadeemahmed in Movies
Size :600.57 MB
Stream :Watch Full Movies Online @ Movie4u
Share :








Warning! Do not Download Torrents Without a VPN!
Your IP Address is .   And Location is
Your Internet Provider and Government can track your torrent Activity!  Hide your IP ADDRESS with a VPN!
We Strongly Recommend Using SpyOFF Torrent VPN to Anonymize your Torrenting. It's FREE For 15 Days!

Note :

Please Update (Trackers Info) Before Downloading Torrents to See Updated Seeders And Leechers for Batter Download Speed.

Trackers List

Tracker NameLast CheckStatusSeedersLeechers




Torrent File Content (3 files)


The Exorcist Extended DC (1973) m-HD 480p AC3 Hindi -=GHunio=-[Filmy.pk]
     Downloaded From Filmy.PK.txt -
56 bytes

     SaMpLe.mkv -
3.59 MB

     The Exorcist Extended DC (1973) m-HD 480p AC3 Hindi-=GHunio=-[Filmy.pk].mkv -
596.99 MB



Description



http://kinkycyborg.com/wordpress/wp-content/uploads/2010/06/The-exorcist-blu-ray-book-cover-artwork.jpg




[CODE]The Exorcist Extended DC (1973) | m-HD | 480p | AC3 | Hindi |

General
Unique ID : 191896753237139028886824950655063447814 (0x905DF8677B61DBB9AAA43F0920E05906)

Format : Matroska
Format version : Version 2
File size : 597 MiB
Duration : 2h 6mn
Overall bit rate : 658 Kbps
Encoded date : UTC 2011-10-08 22:56:59
Writing application : mkvmerge v4.9.1 (\'Ich will\') built on Jul 11 2011 23:53:15
Writing library : libebml v1.2.1 + libmatroska v1.1.1

Video
ID : 1
Format : AVC
Format/Info : Advanced Video Codec
Format profile : [email protected]
Format settings, CABAC : Yes
Format settings, ReFrames : 5 frames
Codec ID : V_MPEG4/ISO/AVC
Duration : 2h 6mn
Bit rate : 528 Kbps
Width : 848 pixels
Height : 368 pixels
Display aspect ratio : 2.35:1
Frame rate : 23.976 fps
Color space : YUV
Chroma subsampling : 4:2:0
Bit depth : 8 bits
Scan type : Progressive
Bits/(Pixel*Frame) : 0.071
Stream size : 469 MiB (79%)
Writing library : x264 core 116 r2074 2641b9e

Audio
ID : 2
Format : AC-3
Format/Info : Audio Coding 3
Mode extension : CM (complete main)
Codec ID : A_AC3
Duration : 2h 6mn
Bit rate mode : Constant
Bit rate : 128 Kbps
Channel(s) : 2 channels
Channel positions : Front: L R
Sampling rate : 48.0 KHz
Bit depth : 16 bits
Compression mode : Lossy
Stream size : 116 MiB (19%)

[/CODE]


http://i.imgur.com/in579.png


http://img641.imageshack.us/img641/9523/theexorcistextendeddc19.jpg

http://img41.imageshack.us/img41/9523/theexorcistextendeddc19.jpg

http://img210.imageshack.us/img210/9523/theexorcistextendeddc19.jpg

http://img12.imageshack.us/img12/9523/theexorcistextendeddc19.jpg

http://img28.imageshack.us/img28/9523/theexorcistextendeddc19.jpg

http://img94.imageshack.us/img94/9523/theexorcistextendeddc19.jpg

http://img855.imageshack.us/img855/9523/theexorcistextendeddc19.jpg

http://img195.imageshack.us/img195/9523/theexorcistextendeddc19.jpg

http://img840.imageshack.us/img840/9523/theexorcistextendeddc19.jpg

http://img810.imageshack.us/img810/9523/theexorcistextendeddc19.jpg




Related torrents

Torrent NameAddedSizeSeedLeechHealth
1 Year+ - in Movies600.58 MB00
15 days ago - in Movies7.13 GB00
1 Year+ - in Movies1.81 GB00
1 Year+ - in Movies6.59 GB00
1 Year+ - in Movies2.06 GB24

Comments (0 Comments)




Please login or create a FREE account to post comments

Latest Searches

| hillsong young free we are young | madre e hija porno | Julie Skyhigh kimber legalporno | Bargain hunt Lincoln | krept and konan waste | HOUSEMARTINS THE PEOPLE WHO GRINNED THEMSELVES TO DEATH | texas chainsaw 2013 movie | Doctor Who S10E01 WEB | how we do eazy e | cassidy present |