Quick Browse
Movies
TV shows
Music
Games
Applications
Anime
Other

Donate and Support

Friends
Torrents.me
Torrent Download
Free Movies
1337x
RARBG
Torrent Downloads

Verified torrent The Flowers Of War 2011 R6 - PDVD XViD - INSPiRAL


    Seeders : 1      Leechers : 1
Hash :996877CB08FC6D6E9A744CE43B83378451F7C159
Added :1 Year+ by memory100Verified torrent uploader in Movies
Size :1.39 GB
Stream :Watch Full Movies Online @ Movie4u
Share :


The Flowers Of War 2011 R6 - PDVD XViD - INSPiRAL
Anonymous and Direct Download 300GB+ free







Warning! Do not Download Torrents Without a VPN!
Your IP Address is .   And Location is
Your Internet Provider and Government can track your torrent Activity!  Hide your IP ADDRESS with a VPN!
We Strongly Recommend Using SpyOFF Torrent VPN to Anonymize your Torrenting. It's FREE For 15 Days!

Note :

Please Update (Trackers Info) Before Downloading Torrents to See Updated Seeders And Leechers for Batter Download Speed.

Trackers List

Tracker NameLast CheckStatusSeedersLeechers




Torrent File Content (7 files)


The Flowers Of War 2011 R6 - PDVD XViD - INSPiRAL
     att-networks.com.txt -
39 bytes

     sceneunderground.org.txt -
77 bytes

     Torrent downloaded from Demonoid.me.txt -
46 bytes

     The Flowers Of War 2011 R6 - PDVD XViD - INSPiRAL.nfo -
3.44 KB

     SAMPLE - INSPiRAL.avi -
8.09 MB

     The Flowers Of War 2011 PDVD XViD - INSPiRAL.avi -
1.38 GB

     HDSceneRG.txt -
115 bytes



Description



http://img841.imageshack.us/img841/4033/flowersr.jpg

[code]
TITLE:

The Flowers Of War 2011 R6 - PDVD XViD - INSPiRAL
IMDB:

http://www.imdb.com/title/tt1410063/

SOURCES:

VIDEO - Playx
AUDIO - Playx
SUBS - Already HC both eng and chinese

STATS:

Video
ID : 0
Format : MPEG-4 Visual
Format profile : Advanced [email protected]
Format settings, BVOP : 2
Format settings, QPel : No
Format settings, GMC : No warppoints
Format settings, Matrix : Default (MPEG)
Muxing mode : Packed bitstream
Codec ID : XVID
Codec ID/Hint : XviD
Duration : 2h 25mn
Bit rate : 1 217 Kbps
Width : 640 pixels
Height : 280 pixels
Display aspect ratio : 2.25:1
Frame rate : 25.000 fps
Color space : YUV
Chroma subsampling : 4:2:0
Bit depth : 8 bits
Scan type : Progressive
Compression mode : Lossy
Bits/(Pixel*Frame) : 0.272
Stream size : 1.24 GiB (90%)
Writing library : XviD 64

Audio
ID : 1
Format : MPEG Audio
Format version : Version 1
Format profile : Layer 3
Mode : Joint stereo
Mode extension : MS Stereo
Codec ID : 55
Codec ID/Hint : MP3
Duration : 2h 25mn
Bit rate mode : Constant
Bit rate : 128 Kbps
Channel(s) : 2 channels
Sampling rate : 44.1 KHz
Compression mode : Lossy
Delay relative to video : 18ms
Stream size : 133 MiB (9%)
Alignment : Split accross interleaves
Interleave, duration : 40 ms (1.00 video frame)
Interleave, preload duration : 500 ms



NOTES:

Thanks to play for bringing this too the table .....
Work done,well messed with the brightness,contrast,colour and also added just + 9 sharpness ....
Audio is untouched as it sounded fine the way it was.
Source itself was decent,but just needed some TLC and its in english with some chinese spoken parts but it contains
HC subs for both langs throughout.

Readnfo

Related torrents

Torrent NameAddedSizeSeedLeechHealth
3 days ago - in Other9.84 GB00
1 Year+ - in Movies9.84 GB00
1 Year+ - in Other9.84 GB00
1 Year+ - in Other2.78 GB52
1 Year+ - in Other1.76 GB66

Comments (0 Comments)




Please login or create a FREE account to post comments

Latest Searches

| SM radio edit | PHU1301 | Dual Audio Hindi DD 2 0 Kannada DD 2 | indian telugu homemade | 8thStreetLatinas Jade Jantzen 09 | E09 170619 720p NEXT | 8thStreetLatinas Jade Jantzen 17 | paula shy anie | Wolves of Midgard update | T I feat B G |