Quick Browse
Movies
TV shows
Music
Games
Applications
Anime
Other

Latest Articles

Friends
Torrents.me
Torrent Download
Free Movies
1337x
RARBG
Torrent Downloads

Verified torrent The Flowers Of War 2011 R6 - PDVD XViD - INSPiRAL


    Seeders : 1      Leechers : 1

Hash :996877CB08FC6D6E9A744CE43B83378451F7C159
Added :1 Year+ by memory100Verified torrent uploader in Movies
Size :1.39 GB
Stream :Watch Online Full Movie @ Movie4u
Share :


The Flowers Of War 2011 R6 - PDVD XViD - INSPiRAL
Download Direct And Anonymously







Warning! Do not Download Torrents Without a VPN!
Your IP Address is .   And Location is
Your Internet Provider and Government can track your torrent Activity!  Hide your IP ADDRESS with a VPN!
We Strongly Recommend Using SpyOFF Torrent VPN to Anonymize your Torrenting. It's FREE for 15 Days!

Note :

Please Update (Trackers Info) Before Downloading Torrents to See Updated Seeders And Leechers for Batter Download Speed.

Trackers List

Tracker NameLast CheckStatusSeedersLeechers




Torrent File Content (7 files)


The Flowers Of War 2011 R6 - PDVD XViD - INSPiRAL
     att-networks.com.txt -
39 bytes

     sceneunderground.org.txt -
77 bytes

     Torrent downloaded from Demonoid.me.txt -
46 bytes

     The Flowers Of War 2011 R6 - PDVD XViD - INSPiRAL.nfo -
3.44 KB

     SAMPLE - INSPiRAL.avi -
8.09 MB

     The Flowers Of War 2011 PDVD XViD - INSPiRAL.avi -
1.38 GB

     HDSceneRG.txt -
115 bytes



Description



http://img841.imageshack.us/img841/4033/flowersr.jpg

[code]
TITLE:

The Flowers Of War 2011 R6 - PDVD XViD - INSPiRAL
IMDB:

http://www.imdb.com/title/tt1410063/

SOURCES:

VIDEO - Playx
AUDIO - Playx
SUBS - Already HC both eng and chinese

STATS:

Video
ID : 0
Format : MPEG-4 Visual
Format profile : Advanced [email protected]
Format settings, BVOP : 2
Format settings, QPel : No
Format settings, GMC : No warppoints
Format settings, Matrix : Default (MPEG)
Muxing mode : Packed bitstream
Codec ID : XVID
Codec ID/Hint : XviD
Duration : 2h 25mn
Bit rate : 1 217 Kbps
Width : 640 pixels
Height : 280 pixels
Display aspect ratio : 2.25:1
Frame rate : 25.000 fps
Color space : YUV
Chroma subsampling : 4:2:0
Bit depth : 8 bits
Scan type : Progressive
Compression mode : Lossy
Bits/(Pixel*Frame) : 0.272
Stream size : 1.24 GiB (90%)
Writing library : XviD 64

Audio
ID : 1
Format : MPEG Audio
Format version : Version 1
Format profile : Layer 3
Mode : Joint stereo
Mode extension : MS Stereo
Codec ID : 55
Codec ID/Hint : MP3
Duration : 2h 25mn
Bit rate mode : Constant
Bit rate : 128 Kbps
Channel(s) : 2 channels
Sampling rate : 44.1 KHz
Compression mode : Lossy
Delay relative to video : 18ms
Stream size : 133 MiB (9%)
Alignment : Split accross interleaves
Interleave, duration : 40 ms (1.00 video frame)
Interleave, preload duration : 500 ms



NOTES:

Thanks to play for bringing this too the table .....
Work done,well messed with the brightness,contrast,colour and also added just + 9 sharpness ....
Audio is untouched as it sounded fine the way it was.
Source itself was decent,but just needed some TLC and its in english with some chinese spoken parts but it contains
HC subs for both langs throughout.

Readnfo

Related torrents

Torrent NameAddedSizeSeedLeechHealth
3 months ago - in Other2.6 GB00
4 months ago - in Other2.78 GB1818
4 months ago - in Movies1.84 GB00
4 months ago - in Movies9.84 GB31
5 months ago - in Other2.78 GB00

Note :

Feel free to post any comments about this torrent, including links to Subtitle, samples, screenshots, or any other relevant information. Please Dont Download anything from Comments, And Dont Post Links to Streaming Sites like Fmovies, Xmovies8, 123Movies, GoMovies, CMovieshd, Solarmovie, Watchfree, Putlockers, GoStream, m4ufree etc.

Comments (0 Comments)




Please login or create a FREE account to post comments

Latest Searches

| rushmore eng | AUTOBIOGRAFIA DI UN FINTO | Plies Aint no bih mixtape 3 | Life 2017 bluray 4k | jonathan carol | linda ann | Analized Daphne Klyde Kristy Black | Kendra Lust Daddy s Beauty Queen | amazing anal | redline 2 movie |