Quick Browse
Movies
TV shows
Music
Games
Applications
Anime
Other
Facebook
Advertising

Friends
Torrent Download
Movie4u
1337x.to
Torrent Downloads




Verified torrent The Ghost Writer [DVD] [ENG] [AC3] [Hannspree]


    Seeders : 2      Leechers : 39
Hash :CD3712B64BF22691DE4F2BCCAA5E49DF75C0FF31
Added :1 Year+ by HannspreeVerified torrent uploader in Movies
Size :1.63 GB
Stream :WATCH ONLINE @ Movie4u


The Ghost Writer [DVD] [ENG] [AC3] [Hannspree]
Free and Fast Download with Usenet 300GB+ free







Trackers List

Tracker NameLast CheckStatusSeedersLeechers




Torrent File Content (19 files)


The Ghost Writer
    The Ghost Writer [DVD]
          VIDEO_TS/VIDEO_TS.BUP -
12 KB

          VIDEO_TS/VIDEO_TS.IFO -
12 KB

          VIDEO_TS/VIDEO_TS.VOB -
58 KB

          VIDEO_TS/VTS_01_0.BUP -
88 KB

          VIDEO_TS/VTS_01_0.IFO -
88 KB

          VIDEO_TS/VTS_01_0.VOB -
58 KB

          VIDEO_TS/VTS_01_1.VOB -
1023.97 MB

          VIDEO_TS/VTS_01_2.VOB -
640.67 MB

    The Ghost Writer [Images]
          The Ghost Writer [Cover].jpg -
722.8 KB

          The Ghost Writer [Disc].jpg -
328.05 KB

          The Ghost Writer [Screens].jpg -
115.89 KB

     The Ghost Writer.NFO -
4.3 KB

     Torrent downloaded from Ahashare.com.txt -
47 bytes

     Torrent downloaded from Demonoid.com.txt -
47 bytes

     Torrent downloaded from Genesis-sp.org.txt -
49 bytes

     Torrent downloaded from H33t.org.txt -
43 bytes

     Torrent downloaded from Limetorrents.com.txt -
51 bytes

     Torrent downloaded from TorrentBucket.org.txt -
52 bytes

     Torrent downloaded from Torrentsnet.com.txt -
48 bytes



Description



=====================================================================================
[ Another free, high quality, ready to burn DVD I will be adding new torrents on a daily basis - Remember to seed ]
=====================================================================================
MOVIE TITLE: The Ghost Writer
LANGUAGE: English
MOVIE SUBS: No
BURN TESTED: Yes
FORMAT: Pal
GENRE: Drama | Mystery | Thriller
RUNTIME: 129 Minutes
YEAR: 2010
IMDB LINK: http://www.imdb.com/title/tt1139328/
=====================================================================================
MOVIE DESC:

An unremarkable ghost-writer has landed a lucrative contract to redact the memoirs of Adam Lang, the former UK Prime Minister. After dominating British politics for years, Lang has retired with his wife to the USA. He lives on an island, in luxurious, isolated premises complete with a security detail and a secretarial staff. Soon, Adam Lang gets embroiled in a major scandal with international ramifications that reveals how far he was ready to go in order to nurture UK's "special relationship" with the USA. But before this controversy has started, before even he has closed the deal with the publisher, the ghost-writer gets unmistakable signs that the turgid draft he is tasked to put into shape inexplicably constitutes highly sensitive material.
=====================================================================================
MOVIE SPECS:

GENERAL:
Complete name : The Ghost Writer
Format : MPEG-PS
File size : 1.62 GB
Duration : 129 Minutes
Overall bit rate : 1 838 Kbps

VIDEO:
ID : 224 (0xE0)
Format : MPEG Video
Format version : Version 2
Format profile : [email protected]
Format settings, BVOP : Yes
Format settings, Matrix : Default
Duration : 129 Minutes
Bit rate mode : Variable
Bit rate : 1 610 Kbps
Nominal bit rate : 9 608 Kbps
Width : 720 pixels
Height : 576 pixels
Display aspect ratio : 16:9
Frame rate : 24.000 fps
Standard : PAL
Color space : YUV
Chroma subsampling : 4:2:0
Bit depth : 8 bits
Scan type : Progressive
Scan order : 2:2:2:2:2:2:2:2:2:2:2:3 Pulldown
Bits/(Pixel*Frame) : 0.162
Stream size : 897 MiB (88%)

AUDIO:
ID : 128 (0x80)
Format : AC-3
Format/Info : Audio Coding 3
Mode extension : CM (complete main)
Duration : 129 Minutes
Bit rate mode : Constant
Bit rate : 192 Kbps
Channel(s) : 2 channels
Channel positions : Front: L R
Sampling rate : 48.0 KHz
Stream size : 107 MiB (10%)
=====================================================================================
TRACKERS:
http://inferno.demonoid.com:3401/announce
http://www.genesis-sp.org:2710/announce
http://tracker.torrentbox.com:2710/announce
http://denis.stalker.h3q.com:6969/announce
http://nemesis.1337x.org/announce
http://exodus.1337x.org/announce
http://tracker.publicbt.com/announce
http://10.rarbg.com/announce
http://tracker.ilibr.org:6969/announce
http://rt.beeretracker.net/announce.php
http://torrentbucket.org/announce
=====================================================================================
[FOOT NOTE]
If you are happy with this download, it would be nice to hear your views or comments that you might have. Enjoy
[NEW TORRENT SITE OPENED]
Check out http://torrentbucket.org/ The staff and members are extremely friendly and a relaxed enviroment, plus
there tracker reports live stats' (up-to-the-minute) on your uploaded torrents, your ratio could go through the
roof in no time, well worth joining, check them out!!
=====================================================================================
Screens Shots Of - The Ghost Writer

http://leetpic.com/images/theghostwr.jpg

=====================================================================================

Related torrents

Torrent NameAddedSizeSeedLeechHealth
Verified torrent
1 Year+ - in Movies1.63 GB03
Verified torrent
1 Year+ - in Movies1.34 GB56
Verified torrent
1 Year+ - in Movies1.55 GB229
Verified torrent
1 Year+ - in Movies1.22 GB01
Verified torrent
1 Year+ - in Movies2.74 GB16

Comments (0 Comments)




Please login or create a FREE account to post comments

Latest Searches

| Doc Bangs Busty Babe And Blows Cum On Her Tits | Frankenstein dub 2014 | planet earth 2 1080p s01e06 | The Grand Tour the holy | Ben Hur 2016 ita | The Rock Sh | XXXOmas Manuela H This German granny is a cum thirsty skank 24 08 2016 rq | MomXXX Bibi Fox MILF lust in glasses and stockings 29 08 16 rq | Czech Magdalena 2094 | 10 top songs of 2014 |