Quick Browse
Movies
TV shows
Music
Games
Applications
Anime
Other
Facebook
Advertising

Friends
Torrent Download
Movie4u
1337x.to
Torrent Downloads




Verified torrent The Ghost Writer [DVD5] [ENG] [AC3] [Hannspree]


    Seeders : 0      Leechers : 3
Hash :88EA63E7E63A0D481E30925CE16F32040ACE9759
Added :1 Year+ by HannspreeVerified torrent uploader in Movies
Size :1.63 GB
Stream :WATCH ONLINE @ Movie4u


The Ghost Writer [DVD5] [ENG] [AC3] [Hannspree]
Free and Fast Download with Usenet 300GB+ free







Trackers List

Tracker NameLast CheckStatusSeedersLeechers




Torrent File Content (14 files)


The Ghost Writer
    Northern Warriors - NFO
          NW RG.nfo -
13.08 KB

          NW RG.txt -
70 bytes

    The Ghost Writer [DVD]
          VIDEO_TS/VIDEO_TS.BUP -
12 KB

          VIDEO_TS/VIDEO_TS.IFO -
12 KB

          VIDEO_TS/VIDEO_TS.VOB -
58 KB

          VIDEO_TS/VTS_01_0.BUP -
88 KB

          VIDEO_TS/VTS_01_0.IFO -
88 KB

          VIDEO_TS/VTS_01_0.VOB -
58 KB

          VIDEO_TS/VTS_01_1.VOB -
1023.97 MB

          VIDEO_TS/VTS_01_2.VOB -
640.67 MB

    The Ghost Writer [Images]
          The Ghost Writer [Cover].jpg -
722.8 KB

          The Ghost Writer [Disc].jpg -
328.05 KB

          The Ghost Writer [Screens].jpg -
115.89 KB

     The Ghost Writer.NFO -
4.09 KB



Description



============================================================================
[ Another free, high quality, ready to burn DVD I will be adding new torrents on a daily basis - Remember to seed ]
============================================================================
MOVIE TITLE: The Ghost Writer
LANGUAGE: English
MOVIE SUBS: No
BURN TESTED: Yes
FORMAT: Pal
GENRE: Drama | Mystery | Thriller
RUNTIME: 129 Minutes
YEAR: 2010
IMDB LINK: http://www.imdb.com/title/tt1139328/
============================================================================
MOVIE DESC:

An unremarkable ghost-writer has landed a lucrative contract to redact the memoirs of Adam Lang, the former UK Prime Minister. After dominating British politics for years, Lang has retired with his wife to the USA. He lives on an island, in luxurious, isolated premises complete with a security detail and a secretarial staff. Soon, Adam Lang gets embroiled in a major scandal with international ramifications that reveals how far he was ready to go in order to nurture UK's "special relationship" with the USA. But before this controversy has started, before even he has closed the deal with the publisher, the ghost-writer gets unmistakable signs that the turgid draft he is tasked to put into shape inexplicably constitutes highly sensitive material.
============================================================================
MOVIE SPECS:

GENERAL:
Complete name : The Ghost Writer
Format : MPEG-PS
File size : 1.62 GB
Duration : 129 Minutes
Overall bit rate : 1 838 Kbps

VIDEO:
ID : 224 (0xE0)
Format : MPEG Video
Format version : Version 2
Format profile : [email protected]
Format settings, BVOP : Yes
Format settings, Matrix : Default
Duration : 129 Minutes
Bit rate mode : Variable
Bit rate : 1 610 Kbps
Nominal bit rate : 9 608 Kbps
Width : 720 pixels
Height : 576 pixels
Display aspect ratio : 16:9
Frame rate : 24.000 fps
Standard : PAL
Color space : YUV
Chroma subsampling : 4:2:0
Bit depth : 8 bits
Scan type : Progressive
Scan order : 2:2:2:2:2:2:2:2:2:2:2:3 Pulldown
Bits/(Pixel*Frame) : 0.162
Stream size : 897 MiB (88%)

AUDIO:
ID : 128 (0x80)
Format : AC-3
Format/Info : Audio Coding 3
Mode extension : CM (complete main)
Duration : 129 Minutes
Bit rate mode : Constant
Bit rate : 192 Kbps
Channel(s) : 2 channels
Channel positions : Front: L R
Sampling rate : 48.0 KHz
Stream size : 107 MiB (10%)
============================================================================
TRACKERS:
http://denis.stalker.h3q.com:6969/announce
http://nemesis.1337x.org/announce
http://exodus.1337x.org/announce
http://tracker.publicbt.com/announce
http://10.rarbg.com/announce
http://tracker.ilibr.org:6969/announce
http://rt.beeretracker.net/announce.php
http://red.tracker.prq.to/announce
http://tpb.tracker.prq.to/announce
============================================================================
[FOOT NOTE]
If you are happy with this download, it would be nice to hear your views or comments that you might have. Enjoy
============================================================================
Screen Shot Of The Ghost Writer
============================================================================
http://leetpic.com/images/theghonqn.jpg

=====================================================================================

Related torrents

Torrent NameAddedSizeSeedLeechHealth
1 Good
Verified torrent
1 Year+ - in Movies1.63 GB239
Verified torrent
1 Year+ - in Movies1.16 GB02
Verified torrent
1 Year+ - in Movies1.22 GB00
Verified torrent
1 Year+ - in Movies1.06 GB21
Verified torrent
1 Year+ - in Movies1.36 GB30

Comments (0 Comments)




Please login or create a FREE account to post comments

Latest Searches

| There Be Dragons 2011 BR1080p2DivX DD5 1 nl subs ext TBS | teen 9 y | pokemon hoopa clash | drunk history x265 1080p | the baseballs | aiko j | Stop Inzest Mamas Loch Ist Immer Feucht | rick ross you the boss nicki minaj | little april 5 dvdrip | Sharknado 3 Oh Hell No 2015 HDTVRip L1 |