Quick Browse
Movies
TV shows
Music
Games
Applications
Anime
Other
Facebook
Advertising

Friends
Torrent Download
Movie4u
1337x.to
Torrent Downloads




Verified torrent The Girl With A Dragon Tattoo 2011 DVDSCR XviD AC3-26K


    Seeders : 0      Leechers : 0
Hash :484426A399EEE6E4178211D244DE1195721B13FA
Added :1 Year+ by memory100Verified torrent uploader in Movies
Size :2.24 GB
Stream :WATCH ONLINE @ Movie4u


The Girl With A Dragon Tattoo 2011 DVDSCR XviD AC3-26K
Free and Fast Download with Usenet 300GB+ free







Trackers List

Tracker NameLast CheckStatusSeedersLeechers




Torrent File Content (7 files)


The Girl With A Dragon Tattoo 2011 DVDSCR XviD AC3-26K
     HDSceneRG.txt -
115 bytes

     Sample.avi -
38.77 MB

     The Girl With A Dragon Tattoo 2011 DVDSCR XviD AC3-26K.avi -
2.21 GB

     The Girl With A Dragon Tattoo 2011 DVDSCR XviD AC3-26K.nfo -
3.45 KB

     Torrent downloaded from Demonoid.me.txt -
46 bytes

     att-networks.com.txt -
39 bytes

     sceneunderground.org.txt -
77 bytes



Description




[code]
The Girl With A Dragon Tattoo 2011 DVDSCR XviD AC3-26K

Imdb:
http://www.imdb.com/title/tt1568346/

Plot:
Journalist Mikael Blomkvist is aided in his search for a woman who has been missing for forty years by

Lisbeth Salander, a young computer hacker.

Sources:
riskee NICE one :)

Notes:
WOW A DVDCSR SO SOON!!! added few filters to the video so enjoy.! thnxs to riskee ;)

Greetz:
Xtreme

Encode|FYA|ILLUMANTI|CM8|RX|VISION|HDSCENE|NIGHTMAREZ|xTriLL|DTRG|CRYS|REMIXHD|BIDA|RX|REFILL|INSPiRAL|S

IC|ZOMBIESZ|HOPE|Anonymous
To all the people who have helped me :P you know who you are

Anything to offer email us @: [email protected]

Video
ID : 0
Format : MPEG-4 Visual
Format profile : Advanced [email protected]
Format settings, BVOP : 2
Format settings, QPel : No
Format settings, GMC : No warppoints
Format settings, Matrix : Default (H.263)
Codec ID : XVID
Codec ID/Hint : XviD
Duration : 2h 38mn
Bit rate : 1 604 Kbps
Width : 720 pixels
Height : 304 pixels
Display aspect ratio : 2.35:1
Frame rate : 23.976 fps
Color space : YUV
Chroma subsampling : 4:2:0
Bit depth : 8 bits
Scan type : Progressive
Compression mode : Lossy
Bits/(Pixel*Frame) : 0.306
Stream size : 1.77 GiB (80%)
Writing library : XviD 63

Audio
ID : 1
Format : AC-3
Format/Info : Audio Coding 3
Mode extension : CM (complete main)
Codec ID : 2000
Duration : 2h 38mn
Bit rate mode : Constant
Bit rate : 384 Kbps
Channel(s) : 6 channels
Channel positions : Front: L C R, Side: L R, LFE
Sampling rate : 48.0 KHz
Bit depth : 16 bits
Compression mode : Lossy
Stream size : 434 MiB (19%)
Alignment : Aligned on interleaves
Interleave, duration : 42 ms (1.00 video frame)

[/code]
Screens:
http://img820.imageshack.us/img820/4738/girlll.jpg

http://img840.imageshack.us/img840/5677/vlcsnap2012012313h04m40.png

http://img688.imageshack.us/img688/8136/vlcsnap2012012313h04m44.png

http://img525.imageshack.us/img525/3544/vlcsnap2012012313h04m51.png

http://img94.imageshack.us/img94/1685/vlcsnap2012012313h04m56.png

http://img823.imageshack.us/img823/2891/vlcsnap2012012313h05m00.png

http://img339.imageshack.us/img339/2470/vlcsnap2012012313h05m11.png

http://img221.imageshack.us/img221/2351/vlcsnap2012012313h05m17e.png



http://img851.imageshack.us/img851/5503/26ks.jpg

Thank you smallz for banner!

Related torrents

Torrent NameAddedSizeSeedLeechHealth
1 Year+ - in Movies2.24 GB5547
1 Year+ - in Movies689.28 MB195714
1 Year+ - in Movies1.11 GB00
Verified torrent
1 Year+ - in Movies1.1 GB1,492666
1 Year+ - in Movies1.1 GB00

Comments (0 Comments)




Please login or create a FREE account to post comments

Latest Searches

| mirror kingdoms | Ty Da Dolla | deep house club dance | flash s03e09 hdtv lol | top 1 films | Graves S01E02 720p HDTV x264 FLEET eztv | Rihanna this is what you came for you | moana 2016 720p | BEFIKRE ddr | thrones season 3 1080 |