Quick Browse
Movies
TV shows
Music
Games
Applications
Anime
Other
Facebook
Advertising

Friends
Torrent Download
Movie4u
1337x.to
Torrent Downloads




Verified torrent The Girl With The Dragon Tattoo 2011 720p BRRip XviD AC3-26k


    Seeders : 1      Leechers : 0

Trackers List

Tracker NameLast CheckStatusSeedersLeechers




Torrent File Content (13 files)


The Girl With The Dragon Tattoo 2011 720p BRRip XviD AC3-26k
     1.png -
544.71 KB

     2.png -
294.03 KB

     26k nfo.nfo -
3.58 KB

     3.png -
478.71 KB

     4.png -
484.96 KB

     att-networks.com.txt -
39 bytes

     HDSceneRG.txt -
115 bytes

     sceneunderground.org.txt -
77 bytes

     The Girl With The Dragon Tattoo 2011 720p BRRip XviD AC3-26k.avi -
2.39 GB

     The Girl With The Dragon Tattoo 2011 720p BRRip XviD AC3-26k.jpg -
110.72 KB

     Torrent downloaded from Demonoid.me.txt -
46 bytes

     Torrent downloaded from rarbg.com.txt.txt -
0 bytes

     YouTube Latest Releases And Archive.txt -
80 bytes



Description



http://img41.imageshack.us/img41/2138/girlpf.jpg

[code]

The Girl With The Dragon Tattoo 2011 720p BRRip XviD AC3-26k

http://www.imdb.com/title/tt1568346/

Plot:
Journalist Mikael Blomkvist is aided in his search for a woman who has been missing for forty years
by Lisbeth Salander, a young computer hacker.

Sources - the.girl.with.the.dragon.tattoo.2011.1080p.bluray.x264-sparks.....Thanks :P

Format : AVI
Format/Info : Audio Video Interleave
Format profile : OpenDML
File size : 2.39 GiB
Duration : 2h 38mn
Overall bit rate : 2 163 Kbps
Writing library : VirtualDub build 32842/release

Video
ID : 0
Format : MPEG-4 Visual
Format profile : Advanced [email protected]
Format settings, BVOP : 2
Format settings, QPel : No
Format settings, GMC : No warppoints
Format settings, Matrix : Default (H.263)
Codec ID : XVID
Codec ID/Hint : XviD
Duration : 2h 38mn
Bit rate : 1 512 Kbps
Width : 1 280 pixels
Height : 528 pixels
Display aspect ratio : 2.40:1
Frame rate : 23.976 fps
Color space : YUV
Chroma subsampling : 4:2:0
Bit depth : 8 bits
Scan type : Progressive
Compression mode : Lossy
Bits/(Pixel*Frame) : 0.093
Stream size : 1.67 GiB (70%)
Writing library : XviD 1.2.1 (UTC 2008-12-04)

Audio
ID : 1
Format : AC-3
Format/Info : Audio Coding 3
Mode extension : CM (complete main)
Codec ID : 2000
Duration : 2h 38mn
Bit rate mode : Constant
Bit rate : 640 Kbps
Channel(s) : 6 channels
Channel positions : Front: L C R, Side: L R, LFE
Sampling rate : 48.0 KHz
Bit depth : 16 bits
Compression mode : Lossy
Stream size : 724 MiB (30%)
Alignment : Split accross interleaves
Interleave, duration : 42 ms (1.00 video frame)
Interleave, preload duration : 500 ms




Notes -

Did my thing.. turned out real nice...enjoy

[/code]

Screens:
http://i.imgur.com/0UUrO.png

http://i.imgur.com/QjYZ3.png

http://img849.imageshack.us/img849/601/thegirlwiththedragontatx.jpg

http://img694.imageshack.us/img694/5919/45491346.png

http://img190.imageshack.us/img190/9444/30121130.png


Alternative screens:
http://dippic.com/o6f0u1gab63h
http://imgdepot.org/show/20120305/2/37376_3.png
http://www.imageporter.com/d64hxed7xt0b/4.png
http://www.hotimg.com/image/peFdPVZ

Greetz:
Xtreme Encode|FYA|ILLUMANTI|CM8|RX|VISI​ON|HDSCENE|xTriLL|DTRG|CRYS|REMIX​HD|BIDA|RX|REFILL|INSPiRAL|SIC|
|HO​PE|Anonymous|GooN
To all the people who have helped me you know who you are

Anything to offer email us @: [email protected]


http://img851.imageshack.us/img851/5503/26ks.jpg

Thank you smallz for banner!

Related torrents

Torrent NameAddedSizeSeedLeechHealth
Verified torrent
1 Year+ - in Movies2.78 GB11
1 Year+ - in Movies4.28 GB01
Verified torrent
1 Year+ - in Movies3.84 GB10
Verified torrent
1 Year+ - in Movies1.51 GB00
Verified torrent
1 Year+ - in Movies807.01 MB10

Comments (0 Comments)




Please login or create a FREE account to post comments

Latest Searches

| Dirty Masseur Courtney Taylor | teen booty stalkers 1 | The Dillinger Escape Plan Calculating Infinity 1999 FLAC RLG | Fame Girls Audrey Extra 05 | close up handjob | Misfits S 01 | x men days future past in hindi | Leopard Raws Dragon Ball Super 006 RAW | supergirl s01 720p hevc | karaoke dreamcatcher karaoke |