Quick Browse
Movies
TV shows
Music
Games
Applications
Anime
Other
Facebook
Advertising

Friends
Torrent Download
Movie4u
1337x.to
Torrent Downloads




Verified torrent The Girl With The Dragon Tattoo 2011 NEWSOURCE CAM XviD AC3-26K


    Seeders : 0      Leechers : 1

Trackers List

Tracker NameLast CheckStatusSeedersLeechers




Torrent File Content (7 files)


The Girl With The Dragon Tattoo 2011 NEWSOURCE CAM XviD AC3-26K
     HDSceneRG.txt -
115 bytes

     The Girl With The Dragon Tattoo 2011 NEWSOURCE CAM XviD AC3-26K.avi -
2.03 GB

     The Girl With The Dragon Tattoo 2011 NEWSOURCE CAM XviD AC3-26K.nfo -
3.51 KB

     Torrent downloaded from Demonoid.me.txt -
46 bytes

     att-networks.com.txt -
39 bytes

     sample.avi -
57.48 MB

     sceneunderground.org.txt -
77 bytes



Description



http://img31.imageshack.us/img31/1636/thegirla.jpg

[code]
The Girl With The Dragon Tattoo NEWSOURCE CAM XviD AC3-26K

Imdb:
http://www.imdb.com/title/tt1568346/

Plot:
Journalist Mikael Blomkvist is aided in his search for a woman who has been missing for forty years by Lisbeth Salander, a young computer hacker.

Sources:
THNXS INFERNO!!

Notes:
VIDEO IS GOOD :) BUT HAS A SLIGHT FLICKER TO IT.. ALSO HAS CHAIRS AT THE BOTTOM WHICH IF CROPPED 40% OF SCREEN WOULD HAVE TO BE CUT!! THAT IS LOOSING TO MUCH VIDEO..THNXS TO INFERNO FOR THE NEWSOURCE U ROCK :p
ADDED BIT OF SHARPNESS, AND COLOR FILTERS TO THE VIDEO :) ENJOY.

Greetz:
Xtreme Encode|FYA|ILLUMANTI|CM8|RX|VISION|HDSCENE|NIGHTMAREZ|xTriLL|DTRG|CRYS|REMIXHD|BIDA|RX|REFILL|INSPiRAL|SIC
To all the people who have helped me :P you know who you are

Anything to offer email us @: [email protected]

Video
ID : 0
Format : MPEG-4 Visual
Format profile : Advanced [email protected]
Format settings, BVOP : 2
Format settings, QPel : No
Format settings, GMC : No warppoints
Format settings, Matrix : Default (H.263)
Codec ID : XVID
Codec ID/Hint : XviD
Duration : 2h 32mn
Bit rate : 1 700 Kbps
Width : 672 pixels
Height : 352 pixels
Display aspect ratio : 1.909
Frame rate : 29.970 fps
Color space : YUV
Chroma subsampling : 4:2:0
Bit depth : 8 bits
Scan type : Progressive
Compression mode : Lossy
Bits/(Pixel*Frame) : 0.240
Stream size : 1.81 GiB (89%)
Writing library : XviD 63

Audio
ID : 1
Format : AC-3
Format/Info : Audio Coding 3
Mode extension : CM (complete main)
Codec ID : 2000
Duration : 2h 32mn
Bit rate mode : Constant
Bit rate : 192 Kbps
Channel(s) : 2 channels
Channel positions : Front: L R
Sampling rate : 48.0 KHz
Bit depth : 16 bits
Compression mode : Lossy
Stream size : 210 MiB (10%)
Alignment : Aligned on interleaves
Interleave, duration : 32 ms (0.96 video frame)

[/code]
Screens:
http://img196.imageshack.us/img196/5296/vlcsnap2012011623h12m34.png

http://img832.imageshack.us/img832/6295/vlcsnap2012011623h12m37.png

http://img823.imageshack.us/img823/1545/vlcsnap2012011623h12m41.png

http://img221.imageshack.us/img221/9707/vlcsnap2012011623h12m50gjenuwo.png

http://img20.imageshack.us/img20/964/vlcsnap2012011623h12m57.png

http://img824.imageshack.us/img824/8302/vlcsnap2012011623h13m21.png


http://img851.imageshack.us/img851/5503/26ks.jpg

Thank you smallz for banner!

Related torrents

Torrent NameAddedSizeSeedLeechHealth
Verified torrent
1 Year+ - in Movies2.39 GB10
Verified torrent
1 Year+ - in Movies2.78 GB11
Verified torrent
1 Year+ - in Movies1.51 GB00
Verified torrent
1 Year+ - in Movies807.01 MB10
1 Year+ - in Movies805.77 MB00

Comments (0 Comments)




Please login or create a FREE account to post comments

Latest Searches

| the only game in town 1991 | go Radio | alone music video | legend of the galactic 11 | Minecraft PE 1 6 0 | Babes Rolling In Too Deep Mea Melone | femdom trainer | EXPANSION HIP HOP | redhead pussy fucking | MySistersHotFriend 15 12 26 Kate England 1080p MP4 KTR |