Quick Browse
Movies
TV shows
Music
Games
Applications
Anime
Other
Facebook
Advertising

Friends
Torrent Download
Movie4u
1337x.to
Torrent Downloads




Verified torrent The Girl With The Dragon Tattoo 2011 R5 DVDRip XVID AC3-26K


    Seeders : 0      Leechers : 0

Trackers List

Tracker NameLast CheckStatusSeedersLeechers




Torrent File Content (7 files)


The Girl With The Dragon Tattoo 2011 R5 DVDRip XVID AC3-26K
     HDSceneRG.txt -
115 bytes

     The Girl With The Dragon Tattoo 2011 R5 DVDRip XVID AC3-26K.avi -
1.48 GB

     The Girl With The Dragon Tattoo 2011 R5 DVDRip XVID AC3-26K.nfo -
3.71 KB

     Torrent downloaded from Demonoid.me.txt -
46 bytes

     att-networks.com.txt -
39 bytes

     sample.avi -
28.13 MB

     sceneunderground.org.txt -
77 bytes



Description



http://img442.imageshack.us/img442/2526/thegirll.jpg

[code]
The Girl With The Dragon Tattoo 2011 R5 DVDRip XVID AC3-26K

Imdb:
http://www.imdb.com/title/tt1568346/

Plot:
Journalist Mikael Blomkvist is aided in his search for a woman who has been missing for forty years by Lisbeth Salander, a young computer hacker.

Sources:
VIDEO-RUSSIAN R5 DVDR!! THNXS
AUDIO-STUDIO AUDIO THNXS :P

Notes:
ENJOY !!!!

Greetz:
Xtreme Encode|FYA|ILLUMANTI|CM8|RX|VISION|HDSCENE|NIGHTMAREZ|xTriLL|DTRG|CRYS|REMIXHD|BIDA|RX|REFILL|INSPiRAL|SIC|ZOMBIESZ|HOPE|Anonymous|GooN
To all the people who have helped me :P you know who you are

Anything to offer email us @: [email protected]

Video
ID : 0
Format : MPEG-4 Visual
Format profile : Advanced [email protected]
Format settings, BVOP : 2
Format settings, QPel : No
Format settings, GMC : No warppoints
Format settings, Matrix : Default (H.263)
Muxing mode : Packed bitstream
Codec ID : XVID
Codec ID/Hint : XviD
Duration : 2h 31mn
Bit rate : 947 Kbps
Width : 720 pixels
Height : 300 pixels
Display aspect ratio : 2.40:1
Frame rate : 25.000 fps
Color space : YUV
Chroma subsampling : 4:2:0
Bit depth : 8 bits
Scan type : Progressive
Compression mode : Lossy
Bits/(Pixel*Frame) : 0.175
Stream size : 1.00 GiB (68%)
Writing library : XviD 1.2.1 (UTC 2008-12-04)

Audio
ID : 1
Format : AC-3
Format/Info : Audio Coding 3
Mode extension : CM (complete main)
Codec ID : 2000
Duration : 2h 31mn
Bit rate mode : Constant
Bit rate : 448 Kbps
Channel(s) : 6 channels
Channel positions : Front: L C R, Side: L R, LFE
Sampling rate : 48.0 KHz
Bit depth : 16 bits
Compression mode : Lossy
Delay relative to video : 2s 300ms
Stream size : 485 MiB (32%)
Alignment : Split accross interleaves
Interleave, duration : 4694 ms (117.36 video frames)

[/code]
Screens:
http://img832.imageshack.us/img832/3127/vlcsnap2012020200h27m07.png

http://img820.imageshack.us/img820/2862/vlcsnap2012020200h27m19.png

http://img254.imageshack.us/img254/6999/vlcsnap2012020200h27m35.png

http://img26.imageshack.us/img26/9243/vlcsnap2012020200h27m38.png

http://img850.imageshack.us/img850/2410/vlcsnap2012020200h27m51.png

http://img408.imageshack.us/img408/9594/vlcsnap2012020200h30m33.png

http://img85.imageshack.us/img85/6323/vlcsnap2012020200h30m49.png

http://img843.imageshack.us/img843/9281/vlcsnap2012020200h30m59.png

http://img96.imageshack.us/img96/4162/vlcsnap2012020200h31m03.png


http://img851.imageshack.us/img851/5503/26ks.jpg

Thank you smallz for banner!

Related torrents

Torrent NameAddedSizeSeedLeechHealth
Verified torrent
1 Year+ - in Movies807.01 MB10
Verified torrent
1 Year+ - in Movies2.39 GB10
Verified torrent
1 Year+ - in Movies2.78 GB11
Verified torrent
1 Year+ - in Movies2.09 GB01
1 Year+ - in Movies2.68 GB08

Comments (0 Comments)




Please login or create a FREE account to post comments

Latest Searches

| nataly sinfulxxx | the bay web dl | 1080p rape | Cassidy banks burglar breaks | c j fly | The Concorde Airport 79 1979 | 4 1981 foreigner | vraaa | Private Specials 116 Double Penetration Students | dr fone data |