Quick Browse
Movies
TV shows
Music
Games
Applications
Anime
Other
Facebook
Advertising

Friends
Torrent Download
Movie4u
1337x.to
Torrent Downloads




Verified torrent The Grey 2012 SCR READNFO XViD AC3-26K


    Seeders : 1      Leechers : 1
Hash :2B9544BCA40F6D0D6A94119A1E905E14DBC10A72
Added :1 Year+ by memory100Verified torrent uploader in Movies
Size :1.42 GB
Stream :WATCH ONLINE @ Movie4u


The Grey 2012 SCR READNFO XViD AC3-26K
Free and Fast Download with Usenet 300GB+ free







Trackers List

Tracker NameLast CheckStatusSeedersLeechers




Torrent File Content (9 files)


The Grey 2012 SCR READNFO XViD AC3-26K
     HDSceneRG.txt -
115 bytes

     The Grey 2012 SCR READNFO XViD AC3-26K.avi -
1.39 GB

     The Grey 2012 SCR READNFO XViD AC3-26K.nfo -
3.66 KB

     Torrent downloaded from Demonoid.me.txt -
46 bytes

     Torrent downloaded from godlikeproductions.com.txt -
0 bytes

     Torrent downloaded from rarbg.com.txt.txt -
0 bytes

     att-networks.com.txt -
39 bytes

     sample.avi -
31.63 MB

     sceneunderground.org.txt -
77 bytes



Description



http://img846.imageshack.us/img846/7564/thegrey.jpg

[code]
The Grey 2012 SCR READNFO XViD AC3-26K

Imdb:
http://www.imdb.com/title/tt1601913/

Plot:
In Alaska, an oil drilling team struggle to survive after a plane crash strands them in the wild.

Hunting the humans are a pack of wolves who see them as intruders.

Sources:
CrEwSaDe + a little birdy :P

Notes:
READNFO.. WELL THERE IS BIG ASS WATERMAK IN THE MIDDLE NO POINT BLURRING THIS AS IT WILL BLUR SOME OF

THE VIDEO!! EVEN CROPPING IT WOULD MAKE NO SENSE AS ITS IN THE MIDDLE PMSL...
SO DECIDED TO LEAVE THIS IN :/....
THAT BEEN SAID ADDED FEW FILTERS TO THE VIDEO TO MAKE IT LOOK NICE!!..
IT IS IN SYNC!
SO TAKE IT OR LEAVE IT SIMPLE...

Greetz:
Xtreme

Encode|FYA|ILLUMANTI|CM8|RX|VISION|HDSCENE|NIGHTMAREZ|xTriLL|DTRG|CRYS|REMIXHD|BIDA|RX|REFILL|INSPiRAL

|SIC|ZOMBIESZ|HOPE|Anonymous|GooN
To all the people who have helped me :P you know who you are

Anything to offer email us @: [email protected]

Video
ID : 0
Format : MPEG-4 Visual
Format profile : Advanced [email protected]
Format settings, BVOP : 2
Format settings, QPel : No
Format settings, GMC : No warppoints
Format settings, Matrix : Default (H.263)
Codec ID : XVID
Codec ID/Hint : XviD
Duration : 1h 56mn
Bit rate : 1 477 Kbps
Width : 720 pixels
Height : 304 pixels
Display aspect ratio : 2.35:1
Frame rate : 23.976 fps
Color space : YUV
Chroma subsampling : 4:2:0
Bit depth : 8 bits
Scan type : Progressive
Compression mode : Lossy
Bits/(Pixel*Frame) : 0.281
Stream size : 1.21 GiB (87%)
Writing library : XviD 64

Audio
ID : 1
Format : AC-3
Format/Info : Audio Coding 3
Mode extension : CM (complete main)
Codec ID : 2000
Duration : 1h 56mn
Bit rate mode : Constant
Bit rate : 224 Kbps
Channel(s) : 2 channels
Channel positions : Front: L R
Sampling rate : 48.0 KHz
Bit depth : 16 bits
Compression mode : Lossy
Delay relative to video : 200ms
Stream size : 187 MiB (13%)
Alignment : Split accross interleaves
Interleave, duration : 9357 ms (224.33 video frames)

[/code]
http://i.imgur.com/xW89t.png

http://i.imgur.com/aN1lP.png

http://i.imgur.com/u08co.png

http://i.imgur.com/RJrfh.png

http://img839.imageshack.us/img839/7589/vlcsnap2012021816h34m36.png

http://img687.imageshack.us/img687/396/vlcsnap2012021816h36m14.png

http://img718.imageshack.us/img718/3041/vlcsnap2012021816h45m46.png

http://img838.imageshack.us/img838/8695/vlcsnap2012021816h45m55.png

http://img29.imageshack.us/img29/4466/vlcsnap2012021816h46m49.png


Alternative screens:
http://www.hotimg.com/image/BTvGYvH
http://dippic.com/ttcxl8uwwms6
http://imgdepot.org/show/20120218/2/556669_vlcsnap_2012_02_18_16h34m14s2.png
http://www.imageporter.com/xqqgumha0hnv/vlcsnap-2012-02-18-16h45m46s15.png

http://img851.imageshack.us/img851/5503/26ks.jpg

Thank you smallz for banner!

Related torrents

Torrent NameAddedSizeSeedLeechHealth
1 Year+ - in Movies2.06 GB00
1 Good
Verified torrent
1 Year+ - in Movies2.06 GB1246
1 Year+ - in Movies847.86 MB10
1 Year+ - in Movies896.86 MB11
1 Year+ - in Movies895.86 MB10

Comments (0 Comments)




Please login or create a FREE account to post comments

Latest Searches

| just hits 2009 | Nanami Hirose 936 | Escobar El Patron Del Mal Capitulo 47 HD | lucky luciano baby bash | The God Delusion Unabridged | The Pirates Band of Misfits 2012 720p BrRip 550MB Theroxstar Release | just hits 2010 | unwrapped 5 0 | Game documentary 2 9 | Classic RB 2016 |