Quick Browse
Movies
TV shows
Music
Games
Applications
Anime
Other
Facebook
Advertising

Friends
Torrent Download
Movie4u
1337x.to
Torrent Downloads




The Grey 2012 TS XviD - ILLUMINATI


    Seeders : 1      Leechers : 9
Hash :ECD0F738C90C321C615FCE311B9D269CC31971E5
Added :1 Year+ by sh0cker in Movies
Size :815.66 MB
Stream :WATCH ONLINE @ Movie4u


The Grey 2012 TS XviD - ILLUMINATI
Free and Fast Download with Usenet 300GB+ free







Trackers List

Tracker NameLast CheckStatusSeedersLeechers




Torrent File Content (8 files)


The Grey 2012 TS XviD - ILLUMINATI
     The Grey 2012 TS XviD - ILLUMINATI.rar -
814 MB

     5.PNG -
441.09 KB

     1.PNG -
433.17 KB

     3.PNG -
308.35 KB

     2.PNG -
284.8 KB

     4.PNG -
224.08 KB

     The Grey 2012 TS XviD - ILLUMINATI.nfo -
2.64 KB

     Torrent Downloaded From ExtraTorrent.com.txt -
353 bytes



Description



Title: The Grey 2012 TS XviD - ILLUMINATI
Format: Xvid
Subtitles: No

imDb: http://www.imdb.com/title/tt1601913/

Plot:
In Alaska, an oil drilling team struggle to survive after a plane crash strands them in the wild. Hunting the humans are a pack of wolves who see them as intruders.

Info:

Video
ID : 0
Format : MPEG-4 Visual
Format profile : Advanced [email protected]
Format settings, BVOP : 2
Format settings, QPel : No
Format settings, GMC : No warppoints
Format settings, Matrix : Default (H.263)
Codec ID : XVID
Codec ID/Hint : XviD
Duration : 1h 57mn
Bit rate : 1 349 Kbps
Width : 720 pixels
Height : 304 pixels
Display aspect ratio : 2.35:1
Frame rate : 25.000 fps
Color space : YUV
Chroma subsampling : 4:2:0
Bit depth : 8 bits
Scan type : Progressive
Compression mode : Lossy
Bits/(Pixel*Frame) : 0.247
Stream size : 740.74 MiB (91%)

Audio
ID : 1
Format : MPEG Audio
Format version : Version 1
Format profile : Layer 3
Mode : Joint stereo
Mode extension : MS Stereo
Codec ID : 55
Codec ID/Hint : MP3
Duration : 1h 57mn
Bit rate mode : Constant
Bit rate : 128 Kbps
Channel(s) : 2 channels
Sampling rate : 44.1 KHz
Compression mode : Lossy
Stream size : 73.26 MiB (9%)
Alignment : Aligned on interleaves
Interleave, duration : 40 ms (1.00 video frame)
Writing library : LAME3.98r
Encoding settings : -m j -V 4 -q 2 -lowpass 17 -b 128

Related torrents

Torrent NameAddedSizeSeedLeechHealth
1 Year+ - in Movies946.99 MB11
1 Year+ - in Movies816.86 MB00
Verified torrent
1 Year+ - in Movies1.04 GB10
1 Year+ - in Movies736.23 MB5477
1 Year+ - in Movies819.2 MB00

Comments (0 Comments)




Please login or create a FREE account to post comments

Latest Searches

| Elle Rose Midnight | december 2016 alexa tomas | The Contender Australia S01E08 WS XviD HDCP | leah gotti babysitter | Work the System pdf | alter bridge l | microsoft office mac 15 2 | key roxio nxt 5 pro | the walking dead s 8 | thai bukkake |