Quick Browse
Movies
TV shows
Music
Games
Applications
Anime
Other
Facebook
Advertising

Friends
Torrent Download
Movie4u
1337x.to
Torrent Downloads




Verified torrent The Grey Zone [DVD] [ENG] [AC3] [Hannspree]


    Seeders : 0      Leechers : 1
Hash :7B3C4DE9A1C61D5A8CD78712AF92E7DB06B52A3D
Added :1 Year+ by HannspreeVerified torrent uploader in Movies
Size :1.22 GB
Stream :WATCH ONLINE @ Movie4u


The Grey Zone [DVD] [ENG] [AC3] [Hannspree]
Free and Fast Download with Usenet 300GB+ free







Trackers List

Tracker NameLast CheckStatusSeedersLeechers
http://bigfoot1942.sektori.org:6969/announce2 months agosuccess00
udp://tracker.coppersurfer.tk:802 months agosuccess00
udp://tracker.ilibr.org:6969/announce2 months agosuccess00
http://tracker.nwps.ws:6969/announce2 months agosuccess00
http://tracker.publicbt.com/announce2 months agosuccess00
udp://ipv4.tracker.harry.lu:80/announce2 months agosuccess01
udp://9.rarbg.com:2710/announce2 months agosuccess00
http://tracker.trackerfix.com/announce2 months agosuccess00




Torrent File Content (19 files)


The Grey Zone
    The Grey Zone [DVD]
          VIDEO_TS/VIDEO_TS.BUP -
12 KB

          VIDEO_TS/VIDEO_TS.IFO -
12 KB

          VIDEO_TS/VIDEO_TS.VOB -
58 KB

          VIDEO_TS/VTS_01_0.BUP -
76 KB

          VIDEO_TS/VTS_01_0.IFO -
76 KB

          VIDEO_TS/VTS_01_0.VOB -
58 KB

          VIDEO_TS/VTS_01_1.VOB -
1023.97 MB

          VIDEO_TS/VTS_01_2.VOB -
226.87 MB

    The Grey Zone [Images]
          The Grey Zone [Cover].jpg -
275.23 KB

          The Grey Zone [Disc].jpg -
104.19 KB

          The Grey Zone [Screen Shots].jpg -
139.67 KB

     The Grey Zone.NFO -
4.52 KB

     Torrent downloaded from Ahashare.com.txt -
47 bytes

     Torrent downloaded from Demonoid.com.txt -
47 bytes

     Torrent downloaded from Genesis-sp.org.txt -
49 bytes

     Torrent downloaded from H33t.org.txt -
43 bytes

     Torrent downloaded from Limetorrents.com.txt -
51 bytes

     Torrent downloaded from TorrentBucket.org.txt -
52 bytes

     Torrent downloaded from Torrentsnet.com.txt -
48 bytes



Description



=====================================================================================
[ Another free, high quality, ready to burn DVD I will be adding new torrents on a daily basis - Remember to seed ]
=====================================================================================
MOVIE TITLE: The Grey Zone
LANGUAGE: English
MOVIE SUBS: No
BURN TESTED: Yes
FORMAT: Pal
GENRE: Drama | War
RUNTIME: 109 Minutes
YEAR: 2001
IMDB LINK: http://www.imdb.com/title/tt0252480/
=====================================================================================
MOVIE DESC:

The true story of Dr. Miklos Nyiszli, a Hungarian Jew chosen by Josef Mengele to be the head pathologist at Auschwitz. Nyiszli was one of Auschwitz's Sonderkommandos Special Squads of Jewish prisoners placed by the Nazis in the excruciating moral dilemma of helping to exterminate fellow Jews in exchange for a few more months of life. Together, the Sonderkommandos struggled to organize the only armed revolt that would ever take place at Auschwitz. As the rebellion is about to commence, a group from the unit discovers a 14-year-old girl who has miraculously survived a gassing. A catalyst for their desperate attempt at personal redemption, the men become obsessed with saving this one child, even if doing so endangers the uprising which could save thousands. To what terrible lengths are we willing to go to save our own lives, and what in turn would we sacrifice to save the lives of others?
=====================================================================================
MOVIE SPECS:

GENERAL:
Complete name : The Grey Zone
Format : MPEG-PS
File size : 1.22 GB
Duration : 109 Minutes
Overall bit rate : 1 596 Kbps

VIDEO:
ID : 224 (0xE0)
Format : MPEG Video
Format version : Version 2
Format profile : [email protected]
Format settings, BVOP : Yes
Format settings, Matrix : Default
Duration : 109 Minutes
Bit rate mode : Variable
Bit rate : 1 372 Kbps
Nominal bit rate : 9 608 Kbps
Width : 720 pixels
Height : 576 pixels
Display aspect ratio : 16:9
Frame rate : 24.000 fps
Standard : PAL
Color space : YUV
Chroma subsampling : 4:2:0
Bit depth : 8 bits
Scan type : Progressive
Scan order : 2:2:2:2:2:2:2:2:2:2:2:3 Pulldown
Bits/(Pixel*Frame) : 0.138
Stream size : 880 MiB (86%)

AUDIO:
ID : 128 (0x80)
Format : AC-3
Format/Info : Audio Coding 3
Mode extension : CM (complete main)
Duration : 109 Minutes
Bit rate mode : Constant
Bit rate : 192 Kbps
Channel(s) : 2 channels
Channel positions : Front: L R
Sampling rate : 48.0 KHz
Stream size : 123 MiB (12%)
=====================================================================================
TRACKERS:
http://inferno.demonoid.com:3401/announce
http://www.genesis-sp.org:2710/announce
http://tracker.torrentbox.com:2710/announce
http://denis.stalker.h3q.com:6969/announce
http://nemesis.1337x.org/announce
http://exodus.1337x.org/announce
http://tracker.publicbt.com/announce
http://10.rarbg.com/announce
http://tracker.ilibr.org:6969/announce
http://rt.beeretracker.net/announce.php
http://torrentbucket.org/announce
=====================================================================================
[FOOT NOTE]
If you are happy with this download, it would be nice to hear your views or comments that you might have. Enjoy
[NEW TORRENT SITE OPENED]
Check out http://torrentbucket.org/ The staff and members are extremely friendly and a relaxed enviroment, plus
there tracker reports live stats' (up-to-the-minute) on your uploaded torrents, your ratio could go through the
roof in no time, well worth joining, check them out!!
=====================================================================================
Screen Shots Of - The Grey Zone

http://leetpic.com/images/thegreyzon.jpg

Related torrents

Torrent NameAddedSizeSeedLeechHealth
Verified torrent
1 Year+ - in Movies1.34 GB56
Verified torrent
1 Year+ - in Movies1.55 GB229
1 Good
Verified torrent
1 Year+ - in Movies1.63 GB239
Verified torrent
1 Year+ - in Movies2.74 GB16
Verified torrent
1 Year+ - in Movies1.53 GB62

Comments (0 Comments)




Please login or create a FREE account to post comments

Latest Searches

| by juanito | you are 16 | Joe Budden Rage The Machine | The Cable Guy 1996 720p BluRay x264 AC3 Ozlem | rush usS01 | trine collection | steve jobs man in machine 720p | girls girls girls pearls | hunt treasure | B L S i never dreamed |