Quick Browse
Movies
TV shows
Music
Games
Applications
Anime
Other
Facebook
Advertising

Friends
Torrent Download
Movie4u
1337x.to
Torrent Downloads




Verified torrent The Hangover 2 (2011) DVDRip XviD-MAXSPEED


    Seeders : 4452      Leechers : 849
Hash :9BDA9CB9B94B0663EA83348B47EC53E3C08E69F0
Added :1 Year+ by piratepediaVerified torrent uploader in Movies
Size :1.47 GB
Stream :WATCH ONLINE @ Movie4u


The Hangover 2 (2011) DVDRip XviD-MAXSPEED
Free and Fast Download with Usenet 300GB+ free







Trackers List

Tracker NameLast CheckStatusSeedersLeechers




Torrent File Content (8 files)


The Hangover 2 (2011) DVDRip XviD-MAXSPEED
     The Hangover 2 (2011) DVDRip XviD-MAXSPEED www.torentz.3xforum.ro.avi -
1.47 GB

     sample.avi -
6.27 MB

     screencaps.jpeg -
616.86 KB

     The Hangover 2 (2011) DVDRip XviD-MAXSPEED.nfo -
2.98 KB

     Torrent downloaded from Demonoid.me.txt -
46 bytes

     Torrent downloaded from Extratorrent.com.txt -
40 bytes

     Torrent downloaded from Rarbg.com.txt -
33 bytes

     Torrent downloaded from h33t.com.txt -
32 bytes



Description



http://www.hotimg.com/direct/a55CgXf.jpg


Screens:

http://www.hotimg.com/direct/u9e3sgZ.jpg

http://www.hotimg.com/direct/YJ53QSZ.jpg

http://www.hotimg.com/direct/UFczJgx.jpg

http://www.hotimg.com/direct/WtFVkK7.jpg


Alternative:

[code]http://www.postimg.com/image/50000/photo-49648.jpg
http://www.postimg.com/image/50000/photo-49649.jpg
http://www.postimg.com/image/50000/photo-49650.jpg
http://www.postimg.com/image/50000/photo-49651.jpg[/code]

ScreenCaps:

http://www.postimg.com/50000/photo-49652.jpg


[code]The Hangover 2 (2011) DVDRip XviD-MAXSPEED
Format : AVI
Format/Info : Audio Video Interleave
Format profile : OpenDML
File size : 1.47 GiB
Duration : 1h 37mn
Overall bit rate : 2 151 Kbps
Writing application : VirtualDubMod 1.5.10.2 (build 2542/release)
Writing library : VirtualDubMod build 2542/release
Original source form : MAX TORRENTZ
Copyright : SIGISMUNT

Video
ID : 0
Format : MPEG-4 Visual
Format profile : [email protected]
Format settings, BVOP : Yes
Format settings, QPel : No
Format settings, GMC : No warppoints
Format settings, Matrix : Custom
Codec ID : XVID
Codec ID/Hint : XviD
Duration : 1h 37mn
Bit rate : 1 950 Kbps
Width : 672 pixels
Height : 288 pixels
Display aspect ratio : 2.35:1
Frame rate : 29.970 fps
Resolution : 24 bits
Colorimetry : 4:2:0
Scan type : Progressive
Bits/(Pixel*Frame) : 0.336
Stream size : 1.33 GiB (91%)
Writing library : XviD 1.2.1 (UTC 2008-12-04)

Audio
ID : 1
Format : MPEG Audio
Format version : Version 1
Format profile : Layer 3
Codec ID : 55
Codec ID/Hint : MP3
Duration : 1h 37mn
Bit rate mode : Constant
Bit rate : 192 Kbps
Channel(s) : 2 channels
Sampling rate : 48.0 KHz
Resolution : 16 bits
Stream size : 134 MiB (9%)
Alignment : Aligned on interleaves
Interleave, duration : 24 ms (0.72 video frame)
Interleave, preload duration : 192 ms

Source: DVDRip (perfect a/v/sync quality-original source resynced,sample included)
This torrent is not seedbox supported,please seed it to the MAX

Uploader Note: Same as harry potter today released dvdrip video is little
grainy but is more than watchable-similar to a classic dvdrip encode,see sample
and download it like this if you don't want to wait about 1 month more for another
sources like hd bluray/etc

Note:If you have something to offer as early releases,seedboxes,links,accounts,etc
please contact us on piratepedia[@]msn/gmail.com or our website torentz 3xforum ro

How To Get Your Maxspeed (uTorrent)

Torrent Client - Preferences - Bandwidth - Number of connections - Set aprox. 500 for each
Torrent Client - Preferences - BiTorrent - Protocol Encryption - Forced
Bandwidth Allocation - High (Set download/upload limit - Unlimited)
Stop Other Active Torrents - Start downloading and wait for connections.
Enjoy and Seed for at least 1:1 ratio. Don't forget to say thanks/leave reviews.
Before downloading you should check/google search sample "release name""sample".
Greets to all actual/future p2p/scene QUALITY groups and affiliate websites.
Don't trust IMDb robot or bad ratings,always watch some trailers first.
Ignore stupid comments/fake/mislabeled/no-DVDrips/CAM/TS/RAR uploads.
Please spread this release/torrent to your friends/forums/etc.
If you need translation subs visit some subtitles sites.
Report if you see online streaming or other spam links.
Recommended movie player VLC PLAYER.[/code]

Related torrents

Torrent NameAddedSizeSeedLeechHealth
1 Year+ - in Movies1.47 GB01
1 Year+ - in Movies703 MB10
1 Year+ - in Movies715 MB00
1 Year+ - in Movies700 MB00
1 Year+ - in Movies700 MB10

Comments (0 Comments)




Please login or create a FREE account to post comments

Latest Searches

| Universe 6 Arc | crysis 3 crack skidrow fix | 2016 car magazine | braindead s01e04 ita | agora ta valendo | Stereophile Magazine August 2012 | THERES A FIEND IN EVERY FAMILY | Coldharbour Day 2010 Part 6 Tucandeo 2010 07 28 | Girlsway Elle Alexandra Shyla Jennings | blowing me kisses soulja boy |