Quick Browse
TV shows

Latest Articles

Torrent Download
Free Movies
Torrent Downloads

The Hangover 2009 MPEG-4 (IPONE)(NL SUBS) 2Lions-Team

    Seeders : 22      Leechers : 15

Hash :EB07EB6AC7C83BBE1A721250BAC53C0AB27CB887
Added :1 Year+ in Movies
Size :1.09 GB
Stream :Watch Online Full Movie @ Movie4u
Share :

Warning! Do not Download Torrents Without a VPN!
Your IP Address is .   And Location is
Your Internet Provider and Government can track your torrent Activity!  Hide your IP ADDRESS with a VPN!
We Strongly Recommend Using CyberGhost VPN to Anonymize your Torrenting.

Note :

Please Update (Trackers Info) Before Downloading Torrents to See Updated Seeders And Leechers for Batter Download Speed.

Trackers List

Tracker NameLast CheckStatusSeedersLeechers

Torrent File Content (4 files)

The Hangover 2009 MPEG-4 (IPONE)(NL SUBS) 2Lions-Team
    INFO 2Lions-Team
          logo 2Lions.jpg -
314.99 KB

          The Hangover 2009 MPEG-4 (IPONE)(NL SUBS) 2Lions-Team.txt -
4.91 KB

          Torrents aan geboden door _2lions.ons-forum.nl.txt -
583 bytes

          The Hangover 2009.mp4 -
1.09 GB


The Hangover 2009  MPEG-4 (IPONE)(NL SUBS) 2Lions-Team

Verenigde Staten / Duitsland
99 minuten / 108 minuten (unrated version)

geregisseerd door Todd Phillips
met Bradley Cooper, Ed Helms en Zach Galifianakis

Twee dagen voor zijn huwelijk, gaat Doug met drie vrienden naar Las Vegas,
om daar een knallend vrijgezellenfeest te houden. Ze feesten er op los,
maar als ze de volgende morgen wakker worden weten ze niks meer van de vorige avond.
Om één of andere reden vinden ze een tijger in de douche en zitten ze opgescheept met een zes maanden oude baby.
Doug is echter nergens te bekennen.
Een race tegen de klok volgt om Doug toch nog op tijd voor het altaar te laten verschijnen.

Angelenos Doug Billings and Tracy Garner are about to get married.
Two days before the wedding, the four men in the wedding party - Doug,
Doug's two best buddies Phil Wenneck and Stu Price, and Tracy's brother
Alan Garner - hop into Tracy's father's beloved Mercedes convertible for a 24-hour stag party to Las Vegas.
Phil, a married high school teacher, has the same maturity level as his students when he's with his pals.
Stu, a dentist, is worried about everything, especially what his controlling girlfriend Melissa thinks.
Because she disapproves of traditional male bonding rituals, Stu has to lie to her about the stag,
he telling her that they are going on a wine tasting tour in the Napa Valley.
Regardless, he intends on eventually marrying her, against the advice and wishes of his friends.
And Alan seems to be unaware of what are considered the social graces of the western world.
The morning after their arrival in Las Vegas, they awaken in their hotel suite each with the worst hangover.
None remembers what happened in the past twelve or so hours. The suite is in shambles.
And certain things are in the suite that shouldn't be,
and certain things that should be in the suite are missing.
Probably the most important in the latter category is Doug.
As Phil, Stu and Alan try to find Doug using only what little pieces of information they have at hand,
they go on a journey of discovery of how certain things got into the suite and what happened to the missing items.
However they are on a race for time as if they can't find Doug in the next few hours,
they are going to have to explain to Tracy why they are not yet back in Los Angeles.
And even worse, they may not find Doug at all before the wedding.

Genre: Komedie
Source: The.Hangover.DVDR-DEViSE
Audio: Engelse Dolby Digital 5.1
Subs & Nederlandse custom custom by ~ Just4fun-Team vertaalcrew ~ (hardcoded)






Format : MPEG-4
Format profile : Base Media
Codec ID : isom
File size : 1.09 GiB
Duration : 1h 35mn
Overall bit rate : 1 630 Kbps

ID : 1
Format : MPEG-4 Visual
Format profile : [email protected]
Format settings, BVOP : No
Format settings, QPel : No
Format settings, GMC : No warppoints
Format settings, Matrix : Default (H.263)
Codec ID : 20
Duration : 1h 35mn
Bit rate mode : Variable
Bit rate : 1 497 Kbps
Width : 720 pixels
Height : 406 pixels
Display aspect ratio : 16/9
Frame rate mode : Constant
Frame rate : 25.000 fps
Resolution : 24 bits
Colorimetry : 4:2:0
Scan type : Progressive
Bits/(Pixel*Frame) : 0.205
Stream size : 1.00 GiB (92%)
Writing library : Lavc51.40.4

ID : 2
Format : AAC
Format/Info : Advanced Audio Codec
Format version : Version 4
Format profile : LC
Format settings, SBR : No
Codec ID : 40
Duration : 1h 35mn
Bit rate mode : Variable
Bit rate : 128 Kbps
Channel(s) : 2 channels
Channel positions : L R
Sampling rate : 48.0 KHz
Resolution : 16 bits
Stream size : 87.4 MiB (8%)


Brought to you by

2Lions Team


2Lions-Team for all your Dutch MOVIES and more


DON T HIT AND RUN Niet gelijk afhaken als de film binnen is blijf seeden.

Related torrents

Torrent NameAddedSizeSeedLeechHealth
1 Year+ - in Movies1.13 GB13
1 Year+ - in Movies1.11 GB2333
1 Year+ - in Movies1.08 GB517
1 Year+ - in Movies839.15 MB116
1 Year+ - in Movies1.21 GB10

Note :

Feel free to post any comments about this torrent, including links to Subtitle, samples, screenshots, or any other relevant information. Please Dont Download anything from Comments, And Dont Post Links to Streaming Sites like Fmovies, Xmovies8, 123Movies, GoMovies, CMovieshd, Solarmovie, Watchfree, Putlockers, GoStream, m4ufree etc.

Comments (0 Comments)

Please login or create a FREE account to post comments

Latest Searches

| spartacus guerra de los condenados | This Is Us S02E18 The Wedding | solar for dummies | spirituele | total network inventory 2 | ZZ Top Live From Texas 2008 DVDRip | Windows 10 AIO EN AR | SMBD 68 S Model 68 | As Real As It Gets Elizabeth Bentley Facial Fest | Uyire 1998 Tamil Movie HD Video Songs Dts |