Quick Browse
Movies
TV shows
Music
Games
Applications
Anime
Other
Facebook
Advertising

Friends
Torrent Download
Movie4u
1337x.to
Torrent Downloads




Verified torrent The Hangover Part II 2011 DVDRip XviD-LTW


    Seeders : 0      Leechers : 0
Hash :0AD60706B10E9C09C736A3B60931902E3564083A
Added :1 Year+ by memory100Verified torrent uploader in Movies
Size :1.47 GB
Stream :WATCH ONLINE @ Movie4u


The Hangover Part II 2011 DVDRip XviD-LTW
Free and Fast Download with Usenet 300GB+ free







Trackers List

Tracker NameLast CheckStatusSeedersLeechers




Torrent File Content (6 files)


The.Hangover.Part.II.2011.DVDRip.XviD-LTW
     HDSceneRG.txt -
115 bytes

     The.Hangover.Part.II.2011.DVDRip.XviD-LTW.avi -
1.47 GB

     Torrent downloaded from Demonoid.me.txt -
46 bytes

     Torrent downloaded from Suprnova.me.txt -
42 bytes

     att-networks.com.txt -
39 bytes

     sceneunderground.org.txt -
77 bytes



Description



http://img838.imageshack.us/img838/4150/hangyx.jpg

[code]

Format : AVI
Format/Info : Audio Video Interleave
File size : 1.47 GiB
Duration : 1h 37mn
Overall bit rate : 2 150 Kbps
Writing application : VirtualDubMod 1.5.4.1 (build 2178/release)
Writing library : VirtualDubMod build 2178/release

Video
ID : 0
Format : MPEG-4 Visual
Format profile : Advanced [email protected]
Format settings, BVOP : 1
Format settings, QPel : No
Format settings, GMC : No warppoints
Format settings, Matrix : Custom
Codec ID : XVID
Codec ID/Hint : XviD
Duration : 1h 37mn
Bit rate : 1 950 Kbps
Width : 672 pixels
Height : 288 pixels
Display aspect ratio : 2.35:1
Frame rate : 29.970 fps
Color space : YUV
Chroma subsampling : 4:2:0
Bit depth : 8 bits
Scan type : Progressive
Compression mode : Lossy
Bits/(Pixel*Frame) : 0.336
Stream size : 1.33 GiB (91%)
Writing library : XviD 1.2.1 (UTC 2008-12-04)

Audio
ID : 1
Format : AC-3
Format/Info : Audio Coding 3
Mode extension : CM (complete main)
Codec ID : 2000
Duration : 1h 37mn
Bit rate mode : Constant
Bit rate : 192 Kbps
Channel(s) : 2 channels
Channel positions : Front: L R
Sampling rate : 48.0 KHz
Bit depth : 16 bits
Compression mode : Lossy
Stream size : 134 MiB (9%)
Alignment : Split accross interleaves
Interleave, duration : 96 ms (2.88 video frames)
Interleave, preload duration : 96 ms
Language : English

Thanks: YanKeeS - ZMG

[/code]
Screens:
http://img31.imageshack.us/img31/9531/92024116.png

http://img268.imageshack.us/img268/7210/92307127.png

http://img714.imageshack.us/img714/774/31879296.png

http://img28.imageshack.us/img28/438/93441456.png

Related torrents

Torrent NameAddedSizeSeedLeechHealth
1 Year+ - in Movies686.5 MB00
1 Year+ - in Movies1.47 GB00
1 Year+ - in Movies1.47 GB324
Verified torrent
1 Year+ - in Movies1.47 GB11
1 Year+ - in Movies1.47 GB228
1 Year+ - in Movies1.47 GB2105

Comments (0 Comments)




Please login or create a FREE account to post comments

Latest Searches

| Nemuri Kyoshiro 2 | halloween labels captions and backgrounds vector | on the waterfront budd schulberg | shes a light | Dominion Prequel to the Exorcist 2005 dual audio | usher tinashe | The Magnificent Seven 2016 BRRip XViD AC3 ETRG | graveyard carz s06e03 | porn deepthroat gangbang | The Eyes of My Mother 2016 720p WEB DL x264 MkvCage |